Скачать через торрент [VIDEO4PSP] Тариф Новогодний Фильм бесплатно в хорошем качестве torrent

Скачивайте на UnionPeer.org фильмы через торрент без регистрации. Новинки кино в хорошем качестве через торрент. На UnionPeer.org можно скачать через торрент фильмы 2014 и 2015 годов. Самые новые фильмы.

Скачать торрент [VIDEO4PSP] Тариф Новогодний бесплатно через .torrent фильм мультфильм сериал

Если у вас наблюдаются проблемы со скриншотами, переходом по ссылками, скачиванием торрентов - проблемы в блокировщике рекламы AdBlock. #хорошегоДня!


Статистика раздачи
Размер:  456 MB   |    Зарегистрирован:  5 лет 5 месяцев   |    .torrent скачан:  30 раз   |   
Раздают:  1  
   
Загрузка...
 
Автор Сообщение

Galfimbul

avatar Galfimbul



Тариф Новогодний
«Новый Год Будет!»
Год выпуска: 2008
Страна: Россия
Студия: ''Profit / Телесто''
Жанр: фэнтези, комедия
Продолжительность: ~ 87 мин (01:26:08)
Перевод : не требуется
Режиссер: Евгений Бедарев
Сценарий: Анастасия Волкова, Елена Ласкарева
Продюссер: Елена Гликман, Игорь Толстунов
В ролях: Валерия Ланская, Максим Матвеев, Екатерина Маликова, Евгений Славский, Мария Аронова, Дмитрий Дюжев, Мирослава Карпович, Михаил Пореченков, Роман Полянский, Валерий Меладзе
Описание:
Новогодняя ночь всегда полна чудес и сюрпризов. Чудеса нашего времени часто происходят благодаря техническому прогрессу, хотя и не без участия Деда Мороза, который нынче может оказаться простым продавцом телефона Мечты… Так и у героев этой истории: Андрей купил новый телефон, а под бой курантов набрал наугад номер, чтобы поздравить с Новым годом совершенно незнакомого человека — такая у них была традиция с друзьями на Новый год...
Тех. информация:
Качество: HDRip
Формат: MP4 PSP AVC
Кодек видео: H.264
Кодек аудио: AAC
Видео: 480x208 (2.35:1), 23.976 fps, AVC, H.264, ~ 608 kbps avg, 0.254 bit/pixel
Аудио: Russian 48 kHz, AAC-LC, 2/0 (L,R) ch, ABR, ~128 kbps[/b]

General
Complete name : J:\Ripped_PSP\Тариф Новогодний.2008.HDRip.mp4
Format : MPEG-4
Format profile : Base Media
Codec ID : isom
File size : 456 MiB
Duration : 1h 26mn
Overall bit rate : 740 Kbps
Encoded date : UTC 2010-12-06 00:32:45
Tagged date : UTC 2010-12-06 00:32:45

Video
ID : 1
Format : AVC
Format/Info : Advanced Video Codec
Format profile : <a href="mailto:Main@L3.0" class="postLink">Main@L3.0</a>
Format settings, CABAC : Yes
Format settings, ReFrames : 2 frames
Format settings, GOP : N=1
Codec ID : avc1
Codec ID/Info : Advanced Video Coding
Duration : 1h 26mn
Bit rate mode : Variable
Bit rate : 608 Kbps
Maximum bit rate : 1 745 Kbps
Width : 480 pixels
Height : 208 pixels
Display aspect ratio : 2.35:1
Frame rate mode : Constant
Frame rate : 23.976 fps
Color space : YUV
Chroma subsampling : 4:2:0
Bit depth : 8 bits
Scan type : Progressive
Bits/(Pixel*Frame) : 0.254
Stream size : 375 MiB (82%)
Writing library : x264 core 65 r999kMod cc51047
Encoding settings : cabac=1 / ref=2 / deblock=1:-2:-1 / analyse=0x1:0x131 / me=umh / subme=7 / psy_rd=1.0:0.0 / mixed_ref=1 / me_range=16 / chroma_me=1 / trellis=2 / 8x8dct=0 / cqm=0 / deadzone=21,11 / chroma_qp_offset=-2 / threads=2 / thread_queue=2 / nr=0 / decimate=0 / mbaff=0 / bframes=3 / b_pyramid=0 / b_adapt=1 / b_bias=0 / direct=3 / wpredb=1 / keyint=250 / keyint_min=25 / scenecut=40(pre) / rc=2pass / bitrate=608 / ratetol=1.0 / qcomp=0.60 / qpmin=10 / qpmax=51 / qpstep=4 / cplxblur=20.0 / qblur=0.5 / ip_ratio=1.40 / pb_ratio=1.30 / aq=1:1.00
Encoded date : UTC 2010-12-06 00:32:45
Tagged date : UTC 2010-12-06 00:33:02

Audio
ID : 2
Format : AAC
Format/Info : Advanced Audio Codec
Format version : Version 4
Format profile : LC
Format settings, SBR : No
Codec ID : 40
Duration : 1h 26mn
Bit rate mode : Variable
Bit rate : 128 Kbps
Maximum bit rate : 143 Kbps
Channel(s) : 2 channels
Channel positions : Front: L R
Sampling rate : 48.0 KHz
Stream size : 78.8 MiB (17%)
Encoded date : UTC 2010-12-06 00:32:59
Tagged date : UTC 2010-12-06 00:33:02


Трекер:  [ 02-Июн-2012 21:28 ]

  

Скачать .torrent

Размер .torrent файла 18 KB


Размер: 456 MB
Хэш (hash) релиза: df265a2013c6af582dde47f2b9e6d97440592cf2
Подписка на обновления:

Еще никто не оставлял запись к записи скачать торрент [VIDEO4PSP] Тариф Новогодний . Будь первым!

!Обратная связь