Скачать через торрент [FILM] Космический джэм Space jam Фильм бесплатно в хорошем качестве torrent

Скачивайте на UnionPeer.org фильмы через торрент без регистрации. Новинки кино в хорошем качестве через торрент. На UnionPeer.org можно скачать через торрент фильмы 2014 и 2015 годов. Самые новые фильмы.

Скачать торрент [FILM] Космический джэм Space jam бесплатно через .torrent фильм мультфильм сериал

Если у вас наблюдаются проблемы со скриншотами, переходом по ссылками, скачиванием торрентов - проблемы в блокировщике рекламы AdBlock. #хорошегоДня!


Статистика раздачи
Размер:  468 MB   |    Зарегистрирован:  5 лет 5 месяцев   |    .torrent скачан:  42 раза   |   
Раздают:  1  
   
Загрузка...
 
Автор Сообщение

Galfimbul

avatar Galfimbul


Космический джэм / Space jam
Оригинальное название: Space jam
Год выпуска: 1996
Страна: США
Жанр: Комедия, Фэнтази, Анимационный
Продолжительность: 01:23:42
Перевод: Профессиональный (полное дублирование)
Режиссер: Джо Питка / Djo Pitka

В ролях: Билл Мюррей /Bill Murray/, Тереза Рандл /Theresa Randle/, Майкл Джордан /Michael Jordan/, Уэйн Найт /Wayne Knight/, Маннер Вашингтон /Manner Washington/, Эрик Гордон /Eric Gordon/

Описание: В этой истории, начавшейся летом 1973 года, когда мальчишка лет десяти, забыв обо всем, бросает баскетбольный мяч в корзину. Вы увидите вместе популярного героя мультфильмов Кролика Багза Банни и национального героя спорта, суперзвезду Майкла Джордана. Зрители смогут вместе с персонажами картины перемещаться с баскетбольной площадки в страну легендарных персонажей страны "мультипультии" "Сумасшедших мелодий", но в данном случае они представлены такими, какими их еще никто не видел. Из космоса прибывает на Землю банда сварливых крошечных существ, от которых ничего, кроме неприятностей, не жди.

Качество: HDTVRip
Формат: MP4
Видео кодек: H.264
Аудио кодек: AAC
Видео: MPEG4 Video (H264) 480x272 23.976fps 650 kbps
Аудио: AAC 48000Hz stereo 129 kbps
General
Complete name : КОСМИЧЕСКИЙ ДЖЭМ.mp4
Format : MPEG-4
Format profile : Base Media
Codec ID : isom
File size : 468 MiB
Duration : 1h 23mn
Overall bit rate : 782 Kbps
Encoded date : UTC 2011-06-26 06:41:19
Tagged date : UTC 2011-06-26 06:41:19

Video
ID : 1
Format : AVC
Format/Info : Advanced Video Codec
Format profile : <a href="mailto:Main@L2.1" class="postLink">Main@L2.1</a>
Format settings, CABAC : Yes
Format settings, ReFrames : 1 frame
Codec ID : avc1
Codec ID/Info : Advanced Video Coding
Duration : 1h 23mn
Bit rate mode : Variable
Bit rate : 650 Kbps
Maximum bit rate : 1 854 Kbps
Width : 480 pixels
Height : 272 pixels
Display aspect ratio : 16:9
Frame rate mode : Constant
Frame rate : 23.976 fps
Color space : YUV
Chroma subsampling : 4:2:0
Bit depth : 8 bits
Scan type : Progressive
Bits/(Pixel*Frame) : 0.208
Stream size : 389 MiB (83%)
Writing library : x264 core 65 r999kMod cc51047
Encoding settings : cabac=1 / ref=1 / deblock=1:0:0 / analyse=0x1:0x111 / me=hex / subme=6 / psy_rd=1.0:0.0 / mixed_ref=0 / me_range=16 / chroma_me=1 / trellis=0 / 8x8dct=0 / cqm=0 / deadzone=21,11 / chroma_qp_offset=-2 / threads=2 / thread_queue=2 / nr=0 / decimate=1 / mbaff=0 / bframes=0 / keyint=250 / keyint_min=25 / scenecut=40(pre) / rc=2pass / bitrate=650 / ratetol=1.0 / qcomp=0.60 / qpmin=10 / qpmax=51 / qpstep=4 / cplxblur=20.0 / qblur=0.5 / ip_ratio=1.40 / aq=1:1.00
Encoded date : UTC 2011-06-26 06:41:19
Tagged date : UTC 2011-06-26 06:42:47

Audio
ID : 2
Format : AAC
Format/Info : Advanced Audio Codec
Format version : Version 4
Format profile : LC
Format settings, SBR : No
Codec ID : 40
Duration : 1h 23mn
Bit rate mode : Variable
Bit rate : 129 Kbps
Maximum bit rate : 154 Kbps
Channel(s) : 2 channels
Channel positions : Front: L R
Sampling rate : 48.0 KHz
Stream size : 77.3 MiB (17%)
Encoded date : UTC 2011-06-26 06:42:44
Tagged date : UTC 2011-06-26 06:42:47



Трекер:  [ 02-Июн-2012 21:29 ]

  

Скачать .torrent

Размер .torrent файла 18 KB


Размер: 468 MB
Хэш (hash) релиза: 6878393a934d1e1e144760e78c9d504e7f4e6bab
Подписка на обновления:

Еще никто не оставлял запись к записи скачать торрент [FILM] Космический джэм Space jam . Будь первым!

!Обратная связь