Скачать через торрент [VIDEO4PSP] Шоссе в никуда Lost Highway Фильм бесплатно в хорошем качестве torrent

Скачивайте на UnionPeer.org фильмы через торрент без регистрации. Новинки кино в хорошем качестве через торрент. На UnionPeer.org можно скачать через торрент фильмы 2014 и 2015 годов. Самые новые фильмы.

Скачать торрент [VIDEO4PSP] Шоссе в никуда Lost Highway бесплатно через .torrent фильм мультфильм сериал

Если у вас наблюдаются проблемы со скриншотами, переходом по ссылками, скачиванием торрентов - проблемы в блокировщике рекламы AdBlock. #хорошегоДня!


Статистика раздачи
Размер:  750 MB   |    Зарегистрирован:  5 лет 2 месяца   |    .torrent скачан:  48 раз   |   
Раздают:  1  
   
Загрузка...
 
Автор Сообщение

Galfimbul

avatar Galfimbul


Шоссе в никуда / Lost Highway
Оригинальное название: Lost Highway
Год выпуска: 1996
Страна: США
Жанр: Триллер, Ужасы, Мистика
Продолжительность: 02:14:08
Перевод: Профессиональный (многоголосый, закадровый)
Режиссер: Дэвид Линч / David Lynch

В ролях: Патрисиа Аркетт /Patricia Arquette/, Билл Пуллман /Bill Pullman/, Балтазар Гетти /Balthazar Getty/, Джек Келер /Jack Kehler/, Ричард Прайор /Richard Pryor/, Наташа Грегсон Вагнер /Natasha Gregson Wagner/, Роберт Лоджиа /Robert Loggia/, Майкл Мэсси /Michael Massee/, Скотт Коффи /Scott Coffey/, Джек Нэнс /Jack Nance/, Роберт Блэйк /Robert Blake/, Люси Батлер /Lucy Butler/, Генри Роллинз /Henry Rollins/, Гэри Бьюзи /Gary Busey/, Джованни Рибизи /Giovanni Ribisi

Описание: Фред Мэдисон обвинен в убийстве своей жены Ренэ и приговорен к высшей мере наказания. Незадолго до исполнения приговора он таинственным образом исчезает из камеры смертников, а на его месте находят растерянного и ничего не понимающего Пита Дейтона. Как он оказался в камере? Куда исчез убийца?
Выпущенный на свободу, Пит пытается вернуться к повседневной нормальной жизни, но вместо нее его ждет необъяснимый, поражающий воображение кошмар…
Качество: HDRip
Формат: MP4
Видео кодек: H.264
Аудио кодек: AAC
Видео: MPEG4 Video (H264) 480x208 24.000fps 650 kbps
Аудио: AAC 48000Hz stereo 129 kbps
General
Complete name : ШОССЕ В НИКУДА.mp4
Format : MPEG-4
Format profile : Base Media
Codec ID : isom
File size : 750 MiB
Duration : 2h 14mn
Overall bit rate : 781 Kbps
Encoded date : UTC 2011-02-19 13:04:12
Tagged date : UTC 2011-02-19 13:04:12

Video
ID : 1
Format : AVC
Format/Info : Advanced Video Codec
Format profile : <a href="mailto:Main@L2.0" class="postLink">Main@L2.0</a>
Format settings, CABAC : Yes
Format settings, ReFrames : 1 frame
Codec ID : avc1
Codec ID/Info : Advanced Video Coding
Duration : 2h 14mn
Bit rate mode : Variable
Bit rate : 650 Kbps
Maximum bit rate : 3 213 Kbps
Width : 480 pixels
Height : 208 pixels
Display aspect ratio : 2.35:1
Frame rate mode : Constant
Frame rate : 24.000 fps
Color space : YUV
Chroma subsampling : 4:2:0
Bit depth : 8 bits
Scan type : Progressive
Bits/(Pixel*Frame) : 0.271
Stream size : 624 MiB (83%)
Writing library : x264 core 65 r999kMod cc51047
Encoding settings : cabac=1 / ref=1 / deblock=1:0:0 / analyse=0x1:0x111 / me=hex / subme=6 / psy_rd=1.0:0.0 / mixed_ref=0 / me_range=16 / chroma_me=1 / trellis=0 / 8x8dct=0 / cqm=0 / deadzone=21,11 / chroma_qp_offset=-2 / threads=2 / thread_queue=2 / nr=0 / decimate=1 / mbaff=0 / bframes=0 / keyint=250 / keyint_min=25 / scenecut=40(pre) / rc=2pass / bitrate=650 / ratetol=1.0 / qcomp=0.60 / qpmin=10 / qpmax=51 / qpstep=4 / cplxblur=20.0 / qblur=0.5 / ip_ratio=1.40 / aq=1:1.00
Encoded date : UTC 2011-02-19 13:04:12
Tagged date : UTC 2011-02-19 13:06:30

Audio
ID : 2
Format : AAC
Format/Info : Advanced Audio Codec
Format version : Version 4
Format profile : LC
Format settings, SBR : No
Codec ID : 40
Duration : 2h 14mn
Bit rate mode : Variable
Bit rate : 129 Kbps
Maximum bit rate : 169 Kbps
Channel(s) : 2 channels
Channel positions : Front: L R
Sampling rate : 48.0 KHz
Stream size : 124 MiB (16%)
Encoded date : UTC 2011-02-19 13:06:25
Tagged date : UTC 2011-02-19 13:06:30



Трекер:  [ 02-Июн-2012 21:09 ]

  

Скачать .torrent

Размер .torrent файла 15 KB


Размер: 750 MB
Хэш (hash) релиза: 5a8c85fdd62f0d7a381a7bf5d3c4de399bb3b6fe
Подписка на обновления:

Еще никто не оставлял запись к записи скачать торрент [VIDEO4PSP] Шоссе в никуда Lost Highway . Будь первым!

!Обратная связь