Скачать через торрент [FILM] Лица в толпе Faces in the Crowd Фильм бесплатно в хорошем качестве torrent

Скачивайте на UnionPeer.org фильмы через торрент без регистрации. Новинки кино в хорошем качестве через торрент. На UnionPeer.org можно скачать через торрент фильмы 2014 и 2015 годов. Самые новые фильмы.

Скачать торрент [FILM] Лица в толпе Faces in the Crowd бесплатно через .torrent фильм мультфильм сериал

Если у вас наблюдаются проблемы со скриншотами, переходом по ссылками, скачиванием торрентов - проблемы в блокировщике рекламы AdBlock. #хорошегоДня!


Статистика раздачи
Размер:  543 MB   |    Зарегистрирован:  5 лет 2 месяца   |    .torrent скачан:  27 раз   |   
Раздают:  1  
   
Загрузка...
 
Автор Сообщение

Galfimbul

avatar Galfimbul


Лица в толпе
Оригинальное название: Faces in the Crowd
Год выпуска: 2011
Страна: Канада , Франция
Жанр: триллер
Продолжительность: 01:42:32
Перевод: Одноголосый закадровый Сергей Дидок (Ddok63)
Режиссер: Жюльен Манья / Julien Magnat
В ролях: Милла Йовович, Сара Уэйн Кэллис, Джулиан МакМэхон, Майкл Шэнкс, Адам Харингтон, Сандрин Холт, Валентина Варгас, Марианна Фэйтфулл, Энтони Лемке, Нельс Леннарсо
Мировая премьера: 25 октября 2011
Описание: Фильм повествует о страшной трагедии, которая произошла в жизни молодой женщины Анны. После нападения серийного убийцы, она чудом осталась жива и оказалась единственной свидетельницей видевшей маньяка. Однако сложная травма головы сделала её фактически беспомощной. Она совсем не запоминает лица людей, и как только они исчезают из ее поля зрения, лица стираются из ее памяти навсегда. Воспользовавшись этим редким недугом Анны, маньяк начал с ней дьявольскую игру...
Рейтинг:
Рейтинг MPAA: -Детям до 17 лет обязательно присутствие родителей
Качество: HDRip
Формат: MP4
Видео: 608 Кбит/сек, 23,976 кадр/сек, 480*208 (2,35:1), AVC (Main@L3.0) (CABAC / 3 Ref Frames)
Аудио: 128 Кбит/сек, 2 канала, 48,0 КГц, AAC (Version 4) (LC)
General
Complete name : E:\мои раздачи\Faces.In.The.Crowd.HDRip.2011-AVC.by.mouse2193.mp4
Format : MPEG-4
Format profile : Base Media
Codec ID : isom
File size : 543 MiB
Duration : 1h 42mn
Overall bit rate : 740 Kbps
Encoded date : UTC 2011-10-18 13:55:54
Tagged date : UTC 2011-10-18 13:55:54

Video
ID : 1
Format : AVC
Format/Info : Advanced Video Codec
Format profile : <a href="mailto:Main@L3.0" class="postLink">Main@L3.0</a>
Format settings, CABAC : Yes
Format settings, ReFrames : 4 frames
Format settings, GOP : M=4, N=32
Codec ID : avc1
Codec ID/Info : Advanced Video Coding
Duration : 1h 42mn
Bit rate mode : Variable
Bit rate : 608 Kbps
Maximum bit rate : 2 859 Kbps
Width : 480 pixels
Height : 208 pixels
Display aspect ratio : 2.35:1
Frame rate mode : Constant
Frame rate : 23.976 fps
Color space : YUV
Chroma subsampling : 4:2:0
Bit depth : 8 bits
Scan type : Progressive
Bits/(Pixel*Frame) : 0.254
Stream size : 446 MiB (82%)
Writing library : x264 core 118 r2085 8a62835
Encoding settings : cabac=1 / ref=3 / deblock=1:0:0 / analyse=0x1:0x111 / me=hex / subme=7 / psy=1 / psy_rd=1.00:0.00 / mixed_ref=1 / me_range=16 / chroma_me=1 / trellis=1 / 8x8dct=0 / cqm=0 / deadzone=21,11 / fast_pskip=1 / chroma_qp_offset=-2 / threads=3 / sliced_threads=0 / nr=0 / decimate=1 / interlaced=0 / bluray_compat=0 / constrained_intra=0 / bframes=3 / b_pyramid=2 / b_adapt=1 / b_bias=0 / direct=1 / weightb=1 / open_gop=0 / weightp=2 / keyint=250 / keyint_min=23 / scenecut=40 / intra_refresh=0 / rc_lookahead=40 / rc=2pass / mbtree=1 / bitrate=608 / ratetol=1.0 / qcomp=0.60 / qpmin=0 / qpmax=69 / qpstep=4 / cplxblur=20.0 / qblur=0.5 / ip_ratio=1.40 / aq=1:1.00
Encoded date : UTC 2011-10-18 13:55:54
Tagged date : UTC 2011-10-18 13:57:03

Audio
ID : 2
Format : AAC
Format/Info : Advanced Audio Codec
Format profile : LC
Codec ID : 40
Duration : 1h 42mn
Bit rate mode : Variable
Bit rate : 128 Kbps
Maximum bit rate : 138 Kbps
Channel(s) : 2 channels
Channel positions : Front: L R
Sampling rate : 48.0 KHz
Compression mode : Lossy
Stream size : 93.9 MiB (17%)
Encoded date : UTC 2011-10-18 13:56:51
Tagged date : UTC 2011-10-18 13:57:03




Трекер:  [ 02-Июн-2012 21:10 ]

  

Скачать .torrent

Размер .torrent файла 11 KB


Размер: 543 MB
Хэш (hash) релиза: ca613cadce4cd52f3838b7e7c318e5864ceab00d
Подписка на обновления:

Еще никто не оставлял запись к записи скачать торрент [FILM] Лица в толпе Faces in the Crowd . Будь первым!

!Обратная связь