Скачать через торрент [FILM] Миллионы Брюстера Brewsters Millions Фильм бесплатно в хорошем качестве torrent

Скачивайте на UnionPeer.org фильмы через торрент без регистрации. Новинки кино в хорошем качестве через торрент. На UnionPeer.org можно скачать через торрент фильмы 2014 и 2015 годов. Самые новые фильмы.

Скачать торрент [FILM] Миллионы Брюстера Brewsters Millions бесплатно через .torrent фильм мультфильм сериал

Если у вас наблюдаются проблемы со скриншотами, переходом по ссылками, скачиванием торрентов - проблемы в блокировщике рекламы AdBlock. #хорошегоДня!


Статистика раздачи
Размер:  542 MB   |    Зарегистрирован:  5 лет 2 месяца   |    .torrent скачан:  39 раз   |   
Раздают:  1  
   
Загрузка...
 
Автор Сообщение

Galfimbul

avatar Galfimbul


Миллионы Брюстера / Brewster's Millions
Оригинальное название: Brewster's Millions
Год выпуска: 1985
Страна: США
Жанр: Комедия
Продолжительность: 01:36:56
Перевод: Профессиональный (многоголосый закадровый)
Режиссер: Уолтер Хилл / Walter Hill

В ролях: Ричард Прайор /Richard Pryor/, Джон Кэнди /John Candy/, Лонетт МакКи /Lonette McKee/, Стивен Коллинз /Stephen Collins/, Джерри Орбак /Jerry Orbach/, Пэт Хингл /Pat Hingle/, Това Фельдшух /Tovah Feldshuh/, Джо Грифази /Joe Grifasi/, Хьюм Кронин /Hume Cronyn/

Описание: Седьмая по счету экранизация знаменитого романа и пьесы Джорджа Барра МакКатчеона (впервые пьеса была перенесена на экран еще в 1914 году). Сюжет фильма строится на том, что игрок бейсбольной команды (чернокожий Прайор) получает от скончавшегося эксценричного родственника (белого миллионера) наследство в сотни миллионов долларов.
Однако не все так просто. В завещании есть коварный пункт. Вредный старикан указал в записанном на кинопленку завещании, что полностью сумму наследник получит лишь в том случае, если за месяц сможет потратить 30 млн долларов до последнего цента.

Качество: DVDRip
Формат: MP4
Видео кодек: H.264
Аудио кодек: AAC
Видео: MPEG4 Video (H264) 480x272 25.000fps 650 kbps
Аудио: AAC 48000Hz stereo 129 kbps
General
Complete name : МИЛЛИОНЫ БРЮСТЕРА.mp4
Format : MPEG-4
Format profile : Base Media
Codec ID : isom
File size : 542 MiB
Duration : 1h 36mn
Overall bit rate : 782 Kbps
Encoded date : UTC 2011-07-23 21:19:51
Tagged date : UTC 2011-07-23 21:19:51

Video
ID : 1
Format : AVC
Format/Info : Advanced Video Codec
Format profile : <a href="mailto:Main@L2.1" class="postLink">Main@L2.1</a>
Format settings, CABAC : Yes
Format settings, ReFrames : 1 frame
Codec ID : avc1
Codec ID/Info : Advanced Video Coding
Duration : 1h 36mn
Bit rate mode : Variable
Bit rate : 650 Kbps
Maximum bit rate : 1 875 Kbps
Width : 480 pixels
Height : 272 pixels
Display aspect ratio : 16:9
Frame rate mode : Constant
Frame rate : 25.000 fps
Color space : YUV
Chroma subsampling : 4:2:0
Bit depth : 8 bits
Scan type : Progressive
Bits/(Pixel*Frame) : 0.199
Stream size : 451 MiB (83%)
Writing library : x264 core 65 r999kMod cc51047
Encoding settings : cabac=1 / ref=1 / deblock=1:0:0 / analyse=0x1:0x111 / me=hex / subme=6 / psy_rd=1.0:0.0 / mixed_ref=0 / me_range=16 / chroma_me=1 / trellis=0 / 8x8dct=0 / cqm=0 / deadzone=21,11 / chroma_qp_offset=-2 / threads=2 / thread_queue=2 / nr=0 / decimate=1 / mbaff=0 / bframes=0 / keyint=250 / keyint_min=25 / scenecut=40(pre) / rc=2pass / bitrate=650 / ratetol=1.0 / qcomp=0.60 / qpmin=10 / qpmax=51 / qpstep=4 / cplxblur=20.0 / qblur=0.5 / ip_ratio=1.40 / aq=1:1.00
Encoded date : UTC 2011-07-23 21:19:51
Tagged date : UTC 2011-07-23 21:22:58

Audio
ID : 2
Format : AAC
Format/Info : Advanced Audio Codec
Format version : Version 4
Format profile : LC
Format settings, SBR : No
Codec ID : 40
Duration : 1h 36mn
Bit rate mode : Variable
Bit rate : 129 Kbps
Maximum bit rate : 149 Kbps
Channel(s) : 2 channels
Channel positions : Front: L R
Sampling rate : 48.0 KHz
Stream size : 89.4 MiB (17%)
Encoded date : UTC 2011-07-23 21:22:53
Tagged date : UTC 2011-07-23 21:22:58



Трекер:  [ 02-Июн-2012 21:11 ]

  

Скачать .torrent

Размер .torrent файла 11 KB


Размер: 542 MB
Хэш (hash) релиза: fcfd03720807375377e9ce63dc58542263bc8ba1
Подписка на обновления:

Еще никто не оставлял запись к записи скачать торрент [FILM] Миллионы Брюстера Brewsters Millions . Будь первым!

!Обратная связь