Скачать через торрент [FILM] Успеть за 30 минут 30 Minutes or Less Фильм бесплатно в хорошем качестве torrent

Скачивайте на UnionPeer.org фильмы через торрент без регистрации. Новинки кино в хорошем качестве через торрент. На UnionPeer.org можно скачать через торрент фильмы 2014 и 2015 годов. Самые новые фильмы.

Скачать торрент [FILM] Успеть за 30 минут 30 Minutes or Less бесплатно через .torrent фильм мультфильм сериал

Если у вас наблюдаются проблемы со скриншотами, переходом по ссылками, скачиванием торрентов - проблемы в блокировщике рекламы AdBlock. #хорошегоДня!


Статистика раздачи
Размер:  482 MB   |    Зарегистрирован:  5 лет 4 месяца   |    .torrent скачан:  39 раз   |   
Раздают:  1  
   
Загрузка...
 
Автор Сообщение

Galfimbul

avatar Galfimbul


Успеть за 30 минут

Оригинальное название: 30 Minutes or Less
Год выпуска: 2011 г.
Страна: США, Германия, Канада
Жанр: Боевик, комедия, криминал, приключения
Продолжительность: 01:23:02
Рейтинг MPAA:
Перевод: Профессиональный (дублированный)
Режиссер: Рубен Фляйшер / Ruben Fleischer
В ролях: Джесси Айзенберг, Азиз Ансари, Дэнни МакБрайд, Ник Свардсон, Дилшэд Вэдсариа, Майкл Пенья, Бьянка Кайлич, Фред Уорд, Сэм Джонстон, Джек Фол
Описание: Ник — простой разносчик пиццы, чья размеренная жизнь буквально в одно мгновенье переворачивается с ног на голову, когда в нее с хитроумным планом врываются два бандита, мечтающих сорвать большой куш. Безбашенная парочка похищает Ника с целью заставить его ограбить банк. Ник понимает, что ему никак не обойтись без помощи своего лучшего друга Чета. Вместе приятели должны обвести вокруг пальца похитителей, не попасться в руки полиции, да еще и разобраться друг с другом — ведь их отношения далеко не безоблачны. На эту практически невыполнимую миссию друзьям отведены считанные часы.
Качество видео: HDRip
Формат: MP4
Видео кодек: H.264
Аудио кодек: AAC
Видео: 680 Kbps, 480*208 , at 23.976 fps, H264
Аудио: 128 kbps ,48.0 KHz, 2 channels, AAC

General
Complete name : D:\Мои Раздачи(PSP)\[FILM]30 Minutes or Less\30 Minutes or Less.mp4
Format : MPEG-4
Format profile : Base Media
Codec ID : isom
File size : 482 MiB
Duration : 1h 23mn
Overall bit rate : 811 Kbps
Encoded date : UTC 2011-11-05 14:15:18
Tagged date : UTC 2011-11-05 14:15:18

Video
ID : 1
Format : AVC
Format/Info : Advanced Video Codec
Format profile : <a href="mailto:Main@L3.0" class="postLink">Main@L3.0</a>
Format settings, CABAC : Yes
Format settings, ReFrames : 3 frames
Codec ID : avc1
Codec ID/Info : Advanced Video Coding
Duration : 1h 23mn
Bit rate mode : Variable
Bit rate : 680 Kbps
Maximum bit rate : 5 016 Kbps
Width : 480 pixels
Height : 208 pixels
Display aspect ratio : 2.35:1
Frame rate mode : Constant
Frame rate : 23.976 fps
Color space : YUV
Chroma subsampling : 4:2:0
Bit depth : 8 bits
Scan type : Progressive
Bits/(Pixel*Frame) : 0.284
Stream size : 404 MiB (84%)
Writing library : x264 core 115 r1937 aa21558
Encoding settings : cabac=1 / ref=3 / deblock=1:0:0 / analyse=0x1:0x111 / me=hex / subme=5 / psy=1 / psy_rd=0.00:0.00 / mixed_ref=1 / me_range=16 / chroma_me=1 / trellis=1 / 8x8dct=0 / cqm=0 / deadzone=21,11 / fast_pskip=1 / chroma_qp_offset=0 / threads=6 / sliced_threads=0 / nr=0 / decimate=1 / interlaced=0 / bluray_compat=0 / constrained_intra=0 / bframes=3 / b_pyramid=0 / b_adapt=1 / b_bias=0 / direct=3 / weightb=1 / open_gop=0 / weightp=2 / keyint=250 / keyint_min=23 / scenecut=40 / intra_refresh=0 / rc_lookahead=30 / rc=2pass / mbtree=1 / bitrate=680 / ratetol=1.0 / qcomp=0.60 / qpmin=0 / qpmax=69 / qpstep=4 / cplxblur=20.0 / qblur=0.5 / ip_ratio=1.40 / aq=1:1.00
Encoded date : UTC 2011-11-05 14:15:18
Tagged date : UTC 2011-11-05 14:15:26

Audio
ID : 2
Format : AAC
Format/Info : Advanced Audio Codec
Format profile : LC
Codec ID : 40
Duration : 1h 23mn
Bit rate mode : Variable
Bit rate : 128 Kbps
Maximum bit rate : 174 Kbps
Channel(s) : 2 channels
Channel positions : Front: L R
Sampling rate : 48.0 KHz
Compression mode : Lossy
Stream size : 76.0 MiB (16%)
Encoded date : UTC 2011-11-05 14:15:23
Tagged date : UTC 2011-11-05 14:15:26



Трекер:  [ 02-Июн-2012 21:12 ]

  

Скачать .torrent

Размер .torrent файла 19 KB


Размер: 482 MB
Хэш (hash) релиза: 17c56b651d3d8ebf0f5705d0a3c0cc23070ace74
Подписка на обновления:

Еще никто не оставлял запись к записи скачать торрент [FILM] Успеть за 30 минут 30 Minutes or Less . Будь первым!

!Обратная связь