Скачать через торрент [VIDEO4PSP] Остров The Island Фильм бесплатно в хорошем качестве torrent

Скачивайте на UnionPeer.org фильмы через торрент без регистрации. Новинки кино в хорошем качестве через торрент. На UnionPeer.org можно скачать через торрент фильмы 2014 и 2015 годов. Самые новые фильмы.

Скачать торрент [VIDEO4PSP] Остров The Island бесплатно через .torrent фильм мультфильм сериал

Если у вас наблюдаются проблемы со скриншотами, переходом по ссылками, скачиванием торрентов - проблемы в блокировщике рекламы AdBlock. #хорошегоДня!


Статистика раздачи
Размер:  731 MB   |    Зарегистрирован:  5 лет 5 месяцев   |    .torrent скачан:  47 раз   |   
Раздают:  1  
   
Загрузка...
 
Автор Сообщение

Galfimbul

avatar Galfimbul


Остров / The Island
Оригинальное название: The Island
Год выпуска: 2005
Страна: США
Жанр: фантастика, боевик, триллер
Продолжительность: 02:10:21
Перевод: Профессиональный (полное дублирование)
Режиссер: Майкл Бэй / Michael Bay

В ролях: Эван МакГрегор /Ewan McGregor/, Скарлетт Йоханссон /Scarlett Johansson/, Джимон Хансу /Djimon Hounsou/, Стив Бусеми /Steve Buscemi/, Шон Бин /Sean Bean/, Майкл Кларк Данкан /Michael Clarke Duncan/

Описание: Линкольн Шесть-Эхо — житель на вид утопического, но охраняемого поселения середины XXI века. Как и все обитатели этого тщательно контролируемого пространства, Линкольн надеется оказаться среди тех, кого отправят на «Остров» — якобы последнее незагрязненное место на планете. Но очень скоро Линкольн обнаруживает, что абсолютно всё, что касается его существования — ложь.
Качество: HDRip
Формат: MP4
Видео кодек: H.264
Аудио кодек: AAC
Видео: MPEG4 Video (H264) 480x208 23.976fps 650 kbps
Аудио: AAC 48000Hz stereo 129 kbps
General
Complete name : ОСТРОВ.mp4
Format : MPEG-4
Format profile : Base Media
Codec ID : isom
File size : 731 MiB
Duration : 2h 10mn
Overall bit rate : 784 Kbps
Encoded date : UTC 2011-01-08 19:43:04
Tagged date : UTC 2011-01-08 19:43:04

Video
ID : 1
Format : AVC
Format/Info : Advanced Video Codec
Format profile : <a href="mailto:Main@L2.0" class="postLink">Main@L2.0</a>
Format settings, CABAC : Yes
Format settings, ReFrames : 1 frame
Codec ID : avc1
Codec ID/Info : Advanced Video Coding
Duration : 2h 10mn
Bit rate mode : Variable
Bit rate : 650 Kbps
Maximum bit rate : 1 749 Kbps
Width : 480 pixels
Height : 208 pixels
Display aspect ratio : 2.35:1
Frame rate mode : Constant
Frame rate : 23.976 fps
Resolution : 8 bits
Colorimetry : 4:2:0
Scan type : Progressive
Bits/(Pixel*Frame) : 0.272
Stream size : 608 MiB (83%)
Writing library : x264 core 65 r999kMod cc51047
Encoding settings : cabac=1 / ref=1 / deblock=1:0:0 / analyse=0x1:0x111 / me=hex / subme=6 / psy_rd=1.0:0.0 / mixed_ref=0 / me_range=16 / chroma_me=1 / trellis=0 / 8x8dct=0 / cqm=0 / deadzone=21,11 / chroma_qp_offset=-2 / threads=2 / thread_queue=2 / nr=0 / decimate=1 / mbaff=0 / bframes=0 / keyint=250 / keyint_min=25 / scenecut=40(pre) / rc=abr / bitrate=650 / ratetol=1.0 / qcomp=0.60 / qpmin=10 / qpmax=51 / qpstep=4 / ip_ratio=1.40 / aq=1:1.00
Encoded date : UTC 2011-01-08 19:43:04
Tagged date : UTC 2011-01-08 19:45:28

Audio
ID : 2
Format : AAC
Format/Info : Advanced Audio Codec
Format version : Version 4
Format profile : LC
Format settings, SBR : No
Codec ID : 40
Duration : 2h 10mn
Bit rate mode : Variable
Bit rate : 129 Kbps
Maximum bit rate : 162 Kbps
Channel(s) : 2 channels
Channel positions : L R
Sampling rate : 48.0 KHz
Stream size : 120 MiB (16%)
Encoded date : UTC 2011-01-08 19:45:21
Tagged date : UTC 2011-01-08 19:45:28



Трекер:  [ 02-Июн-2012 21:27 ]

  

Скачать .torrent

Размер .torrent файла 14 KB


Размер: 731 MB
Хэш (hash) релиза: b2f5aa825921b6b48c362f2ba7e4fe61f624d14d
Подписка на обновления:

Еще никто не оставлял запись к записи скачать торрент [VIDEO4PSP] Остров The Island . Будь первым!

!Обратная связь