Скачать через торрент [VIDEO4PSP] 127 часов 127 Hours Фильм бесплатно в хорошем качестве torrent

Скачивайте на UnionPeer.org фильмы через торрент без регистрации. Новинки кино в хорошем качестве через торрент. На UnionPeer.org можно скачать через торрент фильмы 2014 и 2015 годов. Самые новые фильмы.

Скачать торрент [VIDEO4PSP] 127 часов 127 Hours бесплатно через .torrent фильм мультфильм сериал

Если у вас наблюдаются проблемы со скриншотами, переходом по ссылками, скачиванием торрентов - проблемы в блокировщике рекламы AdBlock. #хорошегоДня!


Статистика раздачи
Размер:  430 MB   |    Зарегистрирован:  5 лет 5 месяцев   |    .torrent скачан:  46 раз   |   
Раздают:  1  
   
Загрузка...
 
Автор Сообщение

Galfimbul

avatar Galfimbul


127 часов / 127 Hours

Оригинальное название: 127 Hours
Год выпуска: 2010
Страна: США, Великобритания
Жанр: триллер, драма
Продолжительность: 01:33:41
Перевод: Профессиональный (полное дублирование)

Режиссёр:

Дэнни Бойл / Danny Boyle

В ролях:

Джеймс Франко, Кейт Мара, Эмбер Тэмблин, Шон Ботт, Колман Стингер, Трит Уильямс, Джон Лоуренс, Кейт Бёртон, Бэйли Мишель Джонсон, Ребекка С. Олсон, Паркер Хэдли, Клеманс Поэзи, Фентон Куинн мл., Лиззи Каплан, Питер Жан Брюгге, Джеффри Вуд, Норман Ленерт, Ксмас Луту, Терри С. Мерсер, Дэрин Соутэм, Роберт Беар, Ти Нельсон, Присцилла Поланд

Описание:

Неудержимый скалолаз и любитель спрятанных в каньонах пещер в очередной раз в одиночестве едет в горы и оказывается в смертельной ловушке. 127 часов без еды, без питья и практически без надежды выжить. Тут-то и проявляется сила характера…

Качество: HDRip
Формат: MP4
Видео кодек: H.264
Аудио кодек: AAC
Видео: Video: MPEG4 Video (H264) 480x272 (16:9) 23.98fps 512kbps
Аудио: Audio: AAC 48000Hz stereo 128kbps
Format : MPEG-4
Format profile : Base Media
Codec ID : isom
File size : 430 MiB
Duration : 1h 33mn
Overall bit rate : 641 Kbps
Writing application : Lavf52.103.0

Video
ID : 1
Format : AVC
Format/Info : Advanced Video Codec
Format profile : <a href="mailto:Main@L3.0" class="postLink">Main@L3.0</a>
Format settings, CABAC : Yes
Format settings, ReFrames : 2 frames
Codec ID : avc1
Codec ID/Info : Advanced Video Coding
Duration : 1h 33mn
Bit rate mode : Variable
Bit rate : 512 Kbps
Width : 480 pixels
Height : 272 pixels
Display aspect ratio : 16:9
Original display aspect ratio : 16:9
Frame rate mode : Constant
Frame rate : 23.976 fps
Color space : YUV
Chroma subsampling : 4:2:0
Bit depth : 8 bits
Scan type : Progressive
Bits/(Pixel*Frame) : 0.164
Stream size : 340 MiB (79%)
Writing library : x264 core 114 r1924M 08d04a4
Encoding settings : cabac=1 / ref=2 / deblock=1:0:0 / analyse=0x1:0x131 / me=dia / subme=1 / psy=1 / psy_rd=0.00:0.00 / mixed_ref=1 / me_range=16 / chroma_me=1 / trellis=0 / 8x8dct=0 / cqm=0 / deadzone=21,11 / fast_pskip=1 / chroma_qp_offset=0 / threads=6 / sliced_threads=0 / nr=0 / decimate=1 / interlaced=0 / constrained_intra=0 / bframes=3 / b_pyramid=0 / b_adapt=0 / b_bias=0 / direct=3 / weightb=1 / open_gop=0 / weightp=0 / keyint=230 / keyint_min=23 / scenecut=40 / intra_refresh=0 / rc_lookahead=40 / rc=cbr / mbtree=1 / bitrate=512 / ratetol=1.0 / qcomp=0.60 / qpmin=10 / qpmax=51 / qpstep=4 / vbv_maxrate=512 / vbv_bufsize=2000 / nal_hrd=none / ip_ratio=1.40 / aq=1:1.00

Audio
ID : 2
Format : AAC
Format/Info : Advanced Audio Codec
Format profile : LC
Codec ID : 40
Duration : 1h 33mn
Bit rate mode : Constant
Bit rate : 128 Kbps
Channel(s) : 2 channels
Channel positions : Front: L R
Sampling rate : 48.0 KHz
Compression mode : Lossy
Stream size : 85.7 MiB (20%)


Трекер:  [ 02-Июн-2012 21:20 ]

  

Скачать .torrent

Размер .torrent файла 17 KB


Размер: 430 MB
Хэш (hash) релиза: a3fe899caf3c1f79310cc299ad36c343cb6e1c6f
Подписка на обновления:

Еще никто не оставлял запись к записи скачать торрент [VIDEO4PSP] 127 часов 127 Hours . Будь первым!

!Обратная связь