[VIDEO4PSP] Ten Inch Hero torrent

UnionPeer.org . . UnionPeer.org 2014 2015 . .

[VIDEO4PSP] Ten Inch Hero .torrent

, , - AdBlock. #!


581 MB   |    :  5 5    |    .torrent :  49    |   
1  
   
...
 

Galfimbul

avatar Galfimbul


Ten Inch Hero
( )
:Ten Inch Hero
: 2007
:
: , ,
: 01:42:19
: Fargate.ru
: Beara
: ""

:
:

: , , , , , ,
: . , . , , - . , , . , , - , , .
. , . . , ? , - .
IMDB
User Rating: 7.2/10 (3,145 votes)

.ru
: 8.233 (3,987 votes) To250: 178
: DVDRip
: MP4
: H.264
: AAC
: H.264, 480x272, 23.976 fps, 661 kbps
: AAC, 2 ch, 48000 Hz, 128 kbps

<!--/code_head--> <div class="c-body">General
Count : 214
Count of stream of this kind : 1
Kind of stream : General
StreamKindID : 0
Count of video streams : 1
Count of audio streams : 1
Video_Format_List : AVC
Video_Format_WithHint_List : AVC
Codecs Video : AVC
Audio_Format_List : AAC
Audio_Format_WithHint_List : AAC
Audio codecs : AAC LC
Complete name : E:\\TenInchHero.Fargate.RU&Lostfilm.TV.[PSP]\TenInchHero.rus.Fargate.RU&Lostfilm.TV.mp4
Folder name : E:\\TenInchHero.Fargate.RU&Lostfilm.TV.[PSP]
File name : TenInchHero.rus.Fargate.RU&Lostfilm.TV
File extension : mp4
Format : MPEG-4
Format : MPEG-4
Format/Extensions : mp4 m4v m4a m4p 3gpp 3gp 3gpp2 3g2 k3g jpm jpx mqv
Format profile : Base Media
Codec ID : isom
Codec ID/Url : http://www.apple.com/quicktime/download/standalone.html
Codec : MPEG-4
Codec : MPEG-4
Codec/Extensions : mp4 m4v m4a m4p 3gpp 3gp 3gpp2 3g2 k3g jpm jpx mqv
File size : 609146939
File size : 581 MiB
File size : 581 MiB
File size : 581 MiB
File size : 581 MiB
File size : 580.9 MiB
Duration : 6139842
Duration : 1h 42mn
Duration : 1h 42mn 19s 842ms
Duration : 1h 42mn
Duration : 01:42:19.842
Overal bit rate : 793697
Overal bit rate : 794 Kbps
Stream size : 2658874 / 2658874
Stream size : 2.54 MiB
Stream size : 3 MiB
Stream size : 2.5 MiB
Stream size : 2.54 MiB
Stream size : 2.536 MiB
Encoded date : UTC 2010-02-06 13:31:28
Tagged date : UTC 2010-02-06 13:31:28
File creation date : UTC 2010-02-07 13:33:30.703
File last modification date : UTC 2010-02-07 13:34:56.484

Video
Count : 119
Count of stream of this kind : 1
Kind of stream : Video
StreamKindID : 0
ID : 1
Format : AVC
Format/Info : Advanced Video Codec
Format/Url : http://developers.videolan.org/x264.html
Format profile : <a href="mailto:Main@L3.0" class="postLink">Main@L3.0</a>
Format settings : CABAC / 2 Ref Frames
Format settings, CABAC : Yes
Format settings, ReFrames : 2
Codec ID : avc1
Codec ID/Url : http://www.apple.com/quicktime/download/standalone.html
Codec : AVC
Codec : AVC
Codec/Family : AVC
Codec/Info : Advanced Video Codec
Codec/Url : http://developers.videolan.org/x264.html
Codec/CC : avc1
Codec profile : <a href="mailto:Main@L3.0" class="postLink">Main@L3.0</a>
Codec settings : CABAC / 2 Ref Frames
Codec settings, CABAC : Yes
Codec_Settings_RefFrames : 2
Duration : 6139842
Duration : 1h 42mn
Duration : 1h 42mn 19s 842ms
Duration : 1h 42mn
Duration : 01:42:19.842
Bit rate mode : VBR
Bit rate : 661296
Bit rate : 661 Kbps
Maximum bit rate : 2574968
Maximum bit rate : 2575 Kbps
Width : 480
Width : 480 pixels
Height : 272
Height : 272 pixels
Pixel Aspect Ratio : 1.000
Display aspect ratio : 1.765
Display aspect ratio : 16/9
Frame rate mode : CFR
Frame rate : 23.976
Frame rate : 23.976 fps
FrameCount : 147209
Colorimetry : 4:2:0
Scan type : Progressive
Scan type : Progressive
Interlacement : PPF
Interlacement : Progressive
Bits/(Pixel*Frame) : 0.211
Stream size : 507533121
Stream size : 484 MiB
Stream size : 484 MiB
Stream size : 484 MiB
Stream size : 484 MiB
Stream size : 484.0 MiB
Encoded date : UTC 2010-02-06 13:31:28
Tagged date : UTC 2010-02-06 13:33:30

Audio
Count : 102
Count of stream of this kind : 1
Kind of stream : Audio
StreamKindID : 0
ID : 2
Format : AAC
Format/Info : Advanced Audio Codec
Format version : Version 4
Format profile : LC
Format settings, SBR : No
Codec : A_AAC/MPEG4/LC
Codec : AAC LC
Codec/Family : AAC
Codec/Info : AAC Low Complexity
Codec/CC : 40
Duration : 6139776
Duration : 1h 42mn
Duration : 1h 42mn 19s 776ms
Duration : 1h 42mn
Duration : 01:42:19.776
Bit rate mode : VBR
Bit rate : 128936
Bit rate : 129 Kbps
Maximum bit rate : 142168
Maximum bit rate : 142 Kbps
Channel(s) : 2
Channel(s) : 2 channels
Channel positions : L R
Sampling rate : 48000
Sampling rate : 48.0 KHz
SamplingCount : 294709248
Resolution : 16
Resolution : 16 bits
Stream size : 98954944
Stream size : 94.4 MiB
Stream size : 94 MiB
Stream size : 94 MiB
Stream size : 94.4 MiB
Stream size : 94.37 MiB
Encoded date : UTC 2010-02-06 13:33:18
Tagged date : UTC 2010-02-06 13:33:30 <!--/code--><!--/code_wrap-->


 ·  , , FAQ-
:  [ 02--2012 18:06 ]

  

.torrent

.torrent 12 KB


: 581 MB
(hash) : a88821520e08182b24d3a42f38f4d34b8d273a0c
:
··
...

[VIDEO4PSP] Ten Inch Hero . !

!