Скачать через торрент Брат 2 Фильм бесплатно в хорошем качестве torrent

Скачивайте на UnionPeer.org фильмы через торрент без регистрации. Новинки кино в хорошем качестве через торрент. На UnionPeer.org можно скачать через торрент фильмы 2014 и 2015 годов. Самые новые фильмы.

Скачать торрент Брат 2 бесплатно через .torrent фильм мультфильм сериал

Если у вас наблюдаются проблемы со скриншотами, переходом по ссылками, скачиванием торрентов - проблемы в блокировщике рекламы AdBlock. #хорошегоДня!


Статистика раздачи
Размер:  636 MB   |    Зарегистрирован:  5 лет 4 месяца   |    .torrent скачан:  60 раз   |   
Раздают:  1  
   
Загрузка...
 
Автор Сообщение

Galfimbul

avatar Galfimbul


«Брат 2»

Год выпуска: 2000 г.
Страна: Россия
Жанр: боевик, комедия, криминал
Продолжительность: 02:02
Режиссер: Алексей Балабанов

Роли исполняют: Сергей Бодров, Виктор Сухоруков, Сергей Маковецкий, Ирина Салтыкова, Кирилл Пирогов, Александр Дьяченко, Гэри Хьюстон, Рэй Толер, Лиза Джеффри, Александр Карамнов и другие.

Описание:
Вторая часть приключений Данилы Багрова в больших городах сильно отличается от первой. В этом фильме меньше повествовательности, и он меньше напоминает притчу — зато главный герой успеет и мир посмотреть, и себя ему показать.

Качество видео: DVDRip
Формат: MP4
Видео кодек: H.264
Аудио кодек: AAC
Видео: x264, 595kbps, 25fps, 480x272
Аудио: aac-lc, 2ch, 128kbps, 48kHz
General
Complete name : F:\movies\!psp\brat2-psp.mp4
Format : MPEG-4
Format profile : Sony PSP
Codec ID : MSNV
File size : 636 MiB
Duration : 2h 2mn
Overall bit rate mode : Variable
Overall bit rate : 726 Kbps
Encoded date : UTC 2012-04-20 10:08:18
Tagged date : UTC 2012-04-20 10:08:18

Video
ID : 1
Format : AVC
Format/Info : Advanced Video Codec
Format profile : <a href="mailto:Main@L3.0" class="postLink">Main@L3.0</a>
Format settings, CABAC : Yes
Format settings, ReFrames : 3 frames
Codec ID : avc1
Codec ID/Info : Advanced Video Coding
Duration : 2h 2mn
Bit rate : 595 Kbps
Maximum bit rate : 3 545 Kbps
Width : 480 pixels
Height : 272 pixels
Display aspect ratio : 16:9
Frame rate mode : Constant
Frame rate : 25.000 fps
Color space : YUV
Chroma subsampling : 4:2:0
Bit depth : 8 bits
Scan type : Progressive
Bits/(Pixel*Frame) : 0.182
Stream size : 522 MiB (82%)
Writing library : x264 core 120 r2164 da19765
Encoding settings : cabac=1 / ref=3 / deblock=1:0:0 / analyse=0x1:0x111 / me=tesa / subme=10 / psy=1 / psy_rd=1.00:0.00 / mixed_ref=1 / me_range=24 / chroma_me=1 / trellis=2 / 8x8dct=0 / cqm=0 / deadzone=21,11 / fast_pskip=0 / chroma_qp_offset=-2 / threads=6 / sliced_threads=0 / nr=0 / decimate=1 / interlaced=0 / bluray_compat=0 / constrained_intra=0 / bframes=16 / b_pyramid=0 / b_adapt=0 / b_bias=0 / direct=3 / weightb=1 / open_gop=0 / weightp=0 / keyint=250 / keyint_min=25 / scenecut=40 / intra_refresh=0 / rc_lookahead=40 / rc=crf / mbtree=1 / crf=19.6 / qcomp=0.60 / qpmin=10 / qpmax=51 / qpstep=4 / vbv_maxrate=10000 / vbv_bufsize=10000 / crf_max=0.0 / nal_hrd=none / ip_ratio=1.40 / aq=1:1.00
Encoded date : UTC 2012-04-16 09:29:53
Tagged date : UTC 2012-04-20 10:10:37

Audio
ID : 2
Format : AAC
Format/Info : Advanced Audio Codec
Format profile : LC
Codec ID : 40
Duration : 2h 2mn
Bit rate mode : Variable
Bit rate : 128 Kbps
Maximum bit rate : 133 Kbps
Channel(s) : 2 channels
Channel positions : Front: L R
Sampling rate : 48.0 KHz
Compression mode : Lossy
Stream size : 112 MiB (18%)
Encoded date : UTC 2012-04-20 10:10:12
Tagged date : UTC 2012-04-20 10:10:37


Трекер:  [ 02-Июн-2012 17:39 ]

  

Скачать .torrent

Размер .torrent файла 13 KB


Размер: 636 MB
Хэш (hash) релиза: ce894844f362406689d7ce3b2da620327ae1435f
Подписка на обновления:

Торренты, похожие на Брат 2 скачать торрент

Форум Название Автор Размер S L Добавлен
Российские сериалы ·· Брат за брата 2 / Сезон: 2 Серии: 1-24 из 24 (Олег Туранский, Олег Ларин) [2012, драма, криминал, DVB] L 4421679718441.18 GB 0 0 1356411060

07:51

25-Дек-12

Российские сериалы ·· Брат за брата 2 / Сезон: 1 / Серии: 1-24 из 24 (Олег Туранский, Олег Филипенко) [2012, Драма, криминал, IPTVRip] Galfimbul 1387804876812.92 GB 0 0 1488077906

05:58

26-Фев-17

Российские сериалы ·· Брат за брата 2 / Серии: 1-24 из 24 (Олег Туранский, Олег Ларин) [2012, Драма, криминал, SATRip-AVC] Galfimbul 101015716209.41 GB 0 0 1361696892

12:08

24-Фев-13

Российские сериалы ·· Брат за брата 2 / Серии: 1-24 из 24 (Олег Туранский, Олег Филипенко) [2012, Криминал, SATRip] L 1393224908812.98 GB 0 0 1356411000

07:50

25-Дек-12

Российские сериалы ·· Братаны-2 (Сезон 2-й, Серия 25-32 из 32) [2010 г., Боевик, детектив, SATRip] balshik 40678543363.79 GB 0 0 1290126240

03:24

19-Ноя-10

Российские сериалы ·· Братаны-2 (Сезон 2-й, Серия 1-24 из 32) [2010 г., Боевик, детектив, SATRip] balshik 1330535924012.39 GB 0 0 1289832350

17:45

15-Ноя-10

Российские фильмы до 2016 ·· Брат 2 (Алексей Балабанов) [2000, Драма, криминал, боевик, WEB-DLRip-AVC] + Sub Rus + Original Galfimbul 23326667462.17 GB 0 0 1505124165

13:02

11-Сен-17

Документальные фильмы и телепередачи ·· Как снимался Брат 2 (Владимир Непевный, Тобин Обер) [2000, Документальный, DVDRip] Galfimbul 525930496502 MB 0 0 1478892291

22:24

11-Ноя-16

Российские фильмы до 2016 ·· Брат 2 (Алексей Балабанов) [2000, Драма, криминал, боевик, WEB-DLRip] Galfimbul 22105128962.06 GB 0 0 1478342078

13:34

5-Ноя-16

Российские фильмы до 2016 ·· Брат 2 (Алексей Балабанов) [2000, Драма, криминал, боевик, WEB-DLRip] Galfimbul 21966725122.05 GB 0 0 1478198608

21:43

3-Ноя-16

Российские фильмы до 2016 ·· Брат 2 (Алексей Балабанов) [2000, Боевик, криминал, WEB-DLRip] Galfimbul 15599697921.45 GB 0 0 1450294656

22:37

16-Дек-15

Российские фильмы до 2016 ·· Брат 2 (Алексей Балабанов) [2000, Боевик, Криминал, WEB-DL 720p] Galfimbul 38587038443.59 GB 0 0 1450291039

21:37

16-Дек-15

Российские фильмы до 2016 ·· Брат 2 (Алексей Балабанов) [2000, Россия, Боевик, DVD9, Союз-Видео] Galfimbul 52301639684.87 GB 0 0 1383511436

23:43

3-Ноя-13

Российские фильмы до 2016 ·· Брат 2 (Алексей Балабанов) [2000, Россия, Боевик, DVD9] + Sub Rus Galfimbul 83953684487.82 GB 0 0 1383230555

17:42

31-Окт-13

Российские фильмы до 2016 ·· Брат 2 (Алексей Балабанов) [2000, Россия, США, драма, DVD5 (Сжатый)] damien1990 46617374724.34 GB 0 0 1362429082

23:31

4-Мар-13

Российские фильмы до 2016 ·· Брат 2 (Алексей Балабанов) [2000, драма, криминал, DVDRip] L 15660666881.46 GB 2 0 1327053643

13:00

20-Янв-12

Российские фильмы до 2016 ·· Брат 2 (Алексей Балабанов) [2000, Боевик, криминал, DVDRip] L 24857518082.32 GB 0 0 1324244432

00:40

19-Дек-11

Российские фильмы до 2016 ·· Брат 2 (Алексей Балабанов) [2000 г., Боевик, криминал, DVDRip] Bot 781954958746 MB 0 0 1287688895

22:21

21-Окт-10

Российские фильмы до 2016 ·· Брат 2 (Алексей Балабанов) [2000 г., боевик, криминал, DVDRip] Bot 24857518082.32 GB 0 0 1287688893

22:21

21-Окт-10

Еще никто не оставлял запись к записи скачать торрент Брат 2 . Будь первым!

!Обратная связь