Скачать через торрент [VIDEO4PSP] Притворись моей женой Just Go with It Фильм бесплатно в хорошем качестве torrent

Скачивайте на UnionPeer.org фильмы через торрент без регистрации. Новинки кино в хорошем качестве через торрент. На UnionPeer.org можно скачать через торрент фильмы 2014 и 2015 годов. Самые новые фильмы.

Скачать торрент [VIDEO4PSP] Притворись моей женой Just Go with It бесплатно через .torrent фильм мультфильм сериал

Если у вас наблюдаются проблемы со скриншотами, переходом по ссылками, скачиванием торрентов - проблемы в блокировщике рекламы AdBlock. #хорошегоДня!


Статистика раздачи
Размер:  592 MB   |    Зарегистрирован:  5 лет 4 месяца   |    .torrent скачан:  48 раз   |   
Раздают:  1  
   
Загрузка...
 
Автор Сообщение

Galfimbul

avatar Galfimbul



Притворись моей женой
«Иногда, чтобы влюбиться, нужно... жениться»
Оригинальное название: Just Go with It
Год выпуска: 2011
Страна: США
Студия: ''Columbia Pictures / Happy Madison Productions''
Жанр: мелодрама, комедия
Продолжительность: ~ 112 мин (01:51:51)
Перевод : профессиональный, полное дублирование (c лицензии)
Режиссер: Деннис Дуган
Сценарий: Аллан Лоб, Тимоти Даулинг, И.А.Л. Даймонд
Продюссер: Джек Джиррапуто, Хезер Парри, Адам Сэндлер
В ролях: Адам Сэндлер, Дженнифер Энистон, Николь Кидман, Ник Свардсон, Бруклин Декер, Бэйли Мэдисон и др.
Голоса дубляжа: Сергей Бурунов, Людмила Шувалова, Елена Борзунова, Диомид Виноградов, Василиса Воронина
Описание:
Главный герой Дэнни встретил Палмер, и чтобы произвести впечатление, рассказал о своей несуществующей жене и тяготах семейной жизни. Вместо ожидаемого сочувствия, Палмер хочет познакомиться с его женой, и Дэнни необходимо срочно придумать, как выпутаться из столь интересного положения. К счастью, у него есть знакомая коллега Кэтрин, обаятельная и с детьми, которые и сыграют на время роль его семьи.

Тех. информация:
Качество: DVDRip[/b]
Формат: MP4 PSP AVC
Кодек видео: H.264
Кодек аудио: AAC
Видео: 480x272 (1.85:1), 25.00 fps, AVC, H.264, ~ 608 kbps avg, 0.186 bit/pixel
Аудио: Russian 48 kHz, AAC-LC, 2/0 (L,R) ch, ABR, ~128 kbps

General
Complete name : E:\Ripped_PSP\Притворись моей женой (Just Go with It, 2011) DVDRip.mp4
Format : MPEG-4
Format profile : Base Media
Codec ID : isom
File size : 592 MiB
Duration : 1h 51mn
Overall bit rate : 740 Kbps
Encoded date : UTC 2011-04-15 01:00:29
Tagged date : UTC 2011-04-15 01:00:29

Video
ID : 1
Format : AVC
Format/Info : Advanced Video Codec
Format profile : <a href="mailto:Main@L3.0" class="postLink">Main@L3.0</a>
Format settings, CABAC : Yes
Format settings, ReFrames : 3 frames
Codec ID : avc1
Codec ID/Info : Advanced Video Coding
Duration : 1h 51mn
Bit rate mode : Variable
Bit rate : 608 Kbps
Maximum bit rate : 3 683 Kbps
Width : 480 pixels
Height : 272 pixels
Display aspect ratio : 16:9
Frame rate mode : Constant
Frame rate : 25.000 fps
Color space : YUV
Chroma subsampling : 4:2:0
Bit depth : 8 bits
Scan type : Progressive
Bits/(Pixel*Frame) : 0.186
Stream size : 486 MiB (82%)
Title : Imported with GPAC 0.4.6-DEV (internal rev. 7)
Writing library : x264 core 108 r1790 8eaf8a6
Encoding settings : cabac=1 / ref=3 / deblock=1:-1:0 / analyse=0x1:0x131 / me=umh / subme=7 / psy=1 / psy_rd=1.00:0.20 / mixed_ref=1 / me_range=16 / chroma_me=1 / trellis=2 / 8x8dct=0 / cqm=0 / deadzone=21,11 / fast_pskip=0 / chroma_qp_offset=-3 / threads=3 / sliced_threads=0 / nr=0 / decimate=0 / interlaced=0 / constrained_intra=0 / bframes=3 / b_pyramid=0 / b_adapt=2 / b_bias=0 / direct=3 / weightb=1 / open_gop=0 / weightp=2 / keyint=250 / keyint_min=25 / scenecut=40 / intra_refresh=0 / rc_lookahead=60 / rc=2pass / mbtree=1 / bitrate=608 / ratetol=1.0 / qcomp=0.60 / qpmin=10 / qpmax=51 / qpstep=4 / cplxblur=20.0 / qblur=0.5 / ip_ratio=1.40 / aq=1:1.00
Encoded date : UTC 2011-04-15 01:00:29
Tagged date : UTC 2011-04-15 01:01:13

Audio
ID : 2
Format : AAC
Format/Info : Advanced Audio Codec
Format profile : LC
Codec ID : 40
Duration : 1h 51mn
Bit rate mode : Variable
Bit rate : 128 Kbps
Maximum bit rate : 143 Kbps
Channel(s) : 2 channels
Channel positions : Front: L R
Sampling rate : 48.0 KHz
Compression mode : Lossy
Stream size : 102 MiB (17%)
Encoded date : UTC 2011-04-15 01:01:07
Tagged date : UTC 2011-04-15 01:01:13


Трекер:  [ 02-Июн-2012 17:05 ]

  

Скачать .torrent

Размер .torrent файла 12 KB


Размер: 592 MB
Хэш (hash) релиза: 5bf126b8d6d5fd3f944e5b9687953a568f1a15ea
Подписка на обновления:

Еще никто не оставлял запись к записи скачать торрент [VIDEO4PSP] Притворись моей женой Just Go with It . Будь первым!

!Обратная связь