Скачать через торрент [FILM] Нокдаун Cinderella Man Фильм бесплатно в хорошем качестве torrent

Скачивайте на UnionPeer.org фильмы через торрент без регистрации. Новинки кино в хорошем качестве через торрент. На UnionPeer.org можно скачать через торрент фильмы 2014 и 2015 годов. Самые новые фильмы.

Скачать торрент [FILM] Нокдаун Cinderella Man бесплатно через .torrent фильм мультфильм сериал

Если у вас наблюдаются проблемы со скриншотами, переходом по ссылками, скачиванием торрентов - проблемы в блокировщике рекламы AdBlock. #хорошегоДня!


Статистика раздачи
Размер:  807 MB   |    Зарегистрирован:  5 лет 5 месяцев   |    .torrent скачан:  43 раза   |   
Раздают:  1  
   
Загрузка...
 
Автор Сообщение

Galfimbul

avatar Galfimbul


Нокдаун / Cinderella Man
Оригинальное название: Cinderella Man
Год выпуска: 2005 г.
Страна: США
Жанр: драма, биография, спорт
Продолжительность: 02:24:20
Перевод: Профессиональный (дублированный)
Режиссер: Рон Ховард /Ron Howard

В ролях: Расселл Кроу /Russell Crowe/, Рене Зеллвегер /Renee Zellweger/, Коннор Прайс /Connor Price/, Ник Смит /Nick Smith/, Мэттью Дж. Тэйлор /Matthew G. Taylor/, Пол Джаматти /Paul Giamatti/

Описание: Потерпев несколько поражений кряду, подававший надежды боксер-тяжеловес Джим Брэддок вынужден бросить спорт. Во времена Великой депрессии Брэддок берется за любую работу, чтобы прокормить свою жену Мэй и детей. При этом он все еще надеется вернуться на ринг. И однажды ему предоставляется такой шанс. В последнюю минуту он заменяет другого боксера и выходит на поединок с претендентом на титул чемпиона мира.
Ко всеобщему изумлению, Брэддок побеждает уже в третьем раунде. Несмотря на то, что он весит меньше своих соперников и к тому же страдает от многочисленных травм, Джим продолжает драться и выигрывать. Апофеозом же его спортивной карьеры становится поединок с чемпионом мира Максом Баэром, убившим на ринге двух человек…

Качество видео: HDRip
Формат: MP4
Видео кодек: H.264
Аудио кодек: AAC
Видео: MPEG4 Video (H264) 480x208 23.976fps 650 kbps
Аудио: AAC 48000Hz stereo 129 kbps
General
Complete name : НОКДАУН.mp4
Format : MPEG-4
Format profile : Base Media
Codec ID : isom
File size : 807 MiB
Duration : 2h 24mn
Overall bit rate : 782 Kbps
Encoded date : UTC 2011-09-24 20:49:16
Tagged date : UTC 2011-09-24 20:49:16

Video
ID : 1
Format : AVC
Format/Info : Advanced Video Codec
Format profile : <a href="mailto:Main@L2.0" class="postLink">Main@L2.0</a>
Format settings, CABAC : Yes
Format settings, ReFrames : 1 frame
Codec ID : avc1
Codec ID/Info : Advanced Video Coding
Duration : 2h 24mn
Bit rate mode : Variable
Bit rate : 650 Kbps
Maximum bit rate : 1 718 Kbps
Width : 480 pixels
Height : 208 pixels
Display aspect ratio : 2.35:1
Frame rate mode : Constant
Frame rate : 23.976 fps
Color space : YUV
Chroma subsampling : 4:2:0
Bit depth : 8 bits
Scan type : Progressive
Bits/(Pixel*Frame) : 0.272
Stream size : 671 MiB (83%)
Writing library : x264 core 65 r999kMod cc51047
Encoding settings : cabac=1 / ref=1 / deblock=1:0:0 / analyse=0x1:0x111 / me=hex / subme=6 / psy_rd=1.0:0.0 / mixed_ref=0 / me_range=16 / chroma_me=1 / trellis=0 / 8x8dct=0 / cqm=0 / deadzone=21,11 / chroma_qp_offset=-2 / threads=2 / thread_queue=2 / nr=0 / decimate=1 / mbaff=0 / bframes=0 / keyint=250 / keyint_min=25 / scenecut=40(pre) / rc=2pass / bitrate=650 / ratetol=1.0 / qcomp=0.60 / qpmin=10 / qpmax=51 / qpstep=4 / cplxblur=20.0 / qblur=0.5 / ip_ratio=1.40 / aq=1:1.00
Encoded date : UTC 2011-09-24 20:49:16
Tagged date : UTC 2011-09-24 20:51:55

Audio
ID : 2
Format : AAC
Format/Info : Advanced Audio Codec
Format version : Version 4
Format profile : LC
Format settings, SBR : No
Codec ID : 40
Duration : 2h 24mn
Bit rate mode : Variable
Bit rate : 129 Kbps
Maximum bit rate : 164 Kbps
Channel(s) : 2 channels
Channel positions : Front: L R
Sampling rate : 48.0 KHz
Stream size : 133 MiB (16%)
Encoded date : UTC 2011-09-24 20:51:43
Tagged date : UTC 2011-09-24 20:51:55



Трекер:  [ 02-Июн-2012 16:50 ]

  

Скачать .torrent

Размер .torrent файла 16 KB


Размер: 807 MB
Хэш (hash) релиза: c83c2e05b9e781d081df7e6f5fdc541914cd147f
Подписка на обновления:

Еще никто не оставлял запись к записи скачать торрент [FILM] Нокдаун Cinderella Man . Будь первым!

!Обратная связь