Скачать через торрент Бриллиантовая рука Фильм бесплатно в хорошем качестве torrent

Скачивайте на UnionPeer.org фильмы через торрент без регистрации. Новинки кино в хорошем качестве через торрент. На UnionPeer.org можно скачать через торрент фильмы 2014 и 2015 годов. Самые новые фильмы.

Скачать торрент Бриллиантовая рука бесплатно через .torrent фильм мультфильм сериал

Если у вас наблюдаются проблемы со скриншотами, переходом по ссылками, скачиванием торрентов - проблемы в блокировщике рекламы AdBlock. #хорошегоДня!


Статистика раздачи
Размер:  447 MB   |    Зарегистрирован:  5 лет 4 месяца   |    .torrent скачан:  89 раз   |   
Раздают:  1  
   
Загрузка...
 
Автор Сообщение

Galfimbul

avatar Galfimbul


«Бриллиантовая рука»

Год выпуска: 1968 г.
Страна: СССР
Жанр: эксцентрическая комедия
Продолжительность: 01:38:20
Режиссер: Леонид Гайдай
В ролях: Юрий Никулин, Анатолий Папанов, Андрей Миронов, Нина Гребешкова, Нонна Мордюкова, Светлана Светличная, Станислав Чекан, Владимир Гуляев, Евгения Мельникова, Андрей Файт, Григорий Шпигель, Леонид Каневский, Татьяна Никулина, Роман Филиппов, Николай Трофимов, Александр Ячницкий, Лев Поляков, Герман Качин, Игорь Ясулович, Александра Лисютина, Дмитрий Николаев, Александр Хвыля, Георгий Светлани, Василий Куприянов, Иван Жеваго, Виктор Уральский, Максим Никулин

Описание: Эксцентрическая комедия в двух частях (1-я часть "Бриллиант почти не виден" и 2-я часть "Костяная нога"), с прологом и эпилогом о скромном труженике Семене Семеныче, вступившем в героический поединок с шайкой контрабандистов-валютчиков, уже четыре десятилетия остается одним из любимейших в народе кинофильмов. Феерический каскад трюков, шуток, музыкальных номеров в исполнении блистательных комедийных актеров неизменно "поражает" смехом любую аудиторию…

Качество видео: HDRip
Формат: MP4
Видео кодек: H.264
Аудио кодек: AAC
Видео: x264, 480x208, 23.976fps, ~537kbps (CRF 19.8)
Аудио: aac-lc, 1ch, 96kbps, 48kHz
General
Complete name : F:\movies\!psp\Brilliantovaya.ruka.psp.mp4
Format : MPEG-4
Format profile : Sony PSP
Codec ID : MSNV
File size : 447 MiB
Duration : 1h 38mn
Overall bit rate mode : Variable
Overall bit rate : 636 Kbps
Encoded date : UTC 2012-01-22 07:15:43
Tagged date : UTC 2012-01-22 07:15:43

Video
ID : 1
Format : AVC
Format/Info : Advanced Video Codec
Format profile : <a href="mailto:Main@L3.0" class="postLink">Main@L3.0</a>
Format settings, CABAC : Yes
Format settings, ReFrames : 3 frames
Codec ID : avc1
Codec ID/Info : Advanced Video Coding
Duration : 1h 38mn
Bit rate : 537 Kbps
Maximum bit rate : 2 426 Kbps
Width : 480 pixels
Height : 208 pixels
Display aspect ratio : 2.35:1
Frame rate mode : Constant
Frame rate : 23.976 fps
Color space : YUV
Chroma subsampling : 4:2:0
Bit depth : 8 bits
Scan type : Progressive
Bits/(Pixel*Frame) : 0.224
Stream size : 378 MiB (84%)
Writing library : x264 core 116 r2074 2641b9e
Encoding settings : cabac=1 / ref=3 / deblock=1:0:0 / analyse=0x1:0x111 / me=umh / subme=9 / psy=1 / psy_rd=1.00:0.00 / mixed_ref=1 / me_range=16 / chroma_me=1 / trellis=2 / 8x8dct=0 / cqm=0 / deadzone=21,11 / fast_pskip=0 / chroma_qp_offset=-2 / threads=6 / sliced_threads=0 / nr=0 / decimate=1 / interlaced=0 / bluray_compat=0 / constrained_intra=0 / bframes=16 / b_pyramid=0 / b_adapt=0 / b_bias=0 / direct=3 / weightb=1 / open_gop=0 / weightp=0 / keyint=250 / keyint_min=23 / scenecut=40 / intra_refresh=0 / rc_lookahead=40 / rc=crf / mbtree=1 / crf=19.8 / qcomp=0.60 / qpmin=10 / qpmax=51 / qpstep=4 / vbv_maxrate=10000 / vbv_bufsize=10000 / crf_max=0.0 / nal_hrd=none / ip_ratio=1.40 / aq=1:1.00
Encoded date : UTC 2012-01-21 21:44:38
Tagged date : UTC 2012-01-22 07:15:46

Audio
ID : 2
Format : AAC
Format/Info : Advanced Audio Codec
Format profile : LC
Codec ID : 40
Duration : 1h 38mn
Bit rate mode : Variable
Bit rate : 96.0 Kbps
Maximum bit rate : 101 Kbps
Channel(s) : 1 channel
Channel positions : Front: C
Sampling rate : 48.0 KHz
Compression mode : Lossy
Stream size : 67.5 MiB (15%)
Language : Russian
Encoded date : UTC 2012-01-22 07:15:45
Tagged date : UTC 2012-01-22 07:15:46


Трекер:  [ 02-Июн-2012 17:08 ]

  

Скачать .torrent

Размер .torrent файла 18 KB


Размер: 447 MB
Хэш (hash) релиза: 3a22cd1fb7e93a34aacac2bff6faf3090023fb4e
Подписка на обновления:

Торренты, похожие на Бриллиантовая рука скачать торрент

Форум Название Автор Размер S L Добавлен
Российские фильмы до 2016 ·· Бриллиантовая рука (Леонид Гайдай) [1968, СССР, Комедия, Криминал, Приключения, Семейный, DVD9] + Sub Eng, Rus, Fra, Deu, Esp, Ita, Ned, Port, Ara, Sve, Jap, Chi, Hebr / Original Rus / RUSCICO Galfimbul 79564288007.41 GB 0 0 1381696807

23:40

13-Окт-13

Документальные фильмы и телепередачи ·· Тайны советского кино (17 выпускoв) << Бриллиантовая рука >> (Максим Володин) [2010-2013, Документальный цикл, познавательный, DVB] Galfimbul 71129231366.62 GB 0 0 1379775268

17:54

21-Сен-13

PSVita | Видео ·· [VITA][FILM] Бриллиантовая рука [Леонид Гайдай][1968 г., Комедия, Криминал, Приключения., BDRip] Galfimbul 23549729892.19 GB 0 0 1371010013

07:06

12-Июн-13

Российские фильмы до 2016 ·· Бриллиантовая рука (Леонид Гайдай) [1968, СССР, комедия, криминал, приключения, семейный, BDRip-AVC] L 15619880721.45 GB 0 0 1325496663

12:31

2-Янв-12

Российские фильмы до 2016 ·· Бриллиантовая рука (Леонид Гайдай) [1968 г., комедия, криминал, приключения, семейный, BDRip-AVC] [полная реставрация] от R.G. 25 Кадр L 36503736603.4 GB 0 0 1324882666

09:57

26-Дек-11

Российские фильмы до 2016 ·· Бриллиантовая рука (Леонид Гайдай) [1968, СССР, комедия, криминал, приключения, семейный, BDRip 720p] onegin 80126096107.46 GB 0 0 1324834367

20:32

25-Дек-11

Российские фильмы до 2016 ·· Бриллиантовая рука (Леонид Гайдай) [1968, СССР, комедия, криминал, приключения, семейный, HDRip] L 777877504742 MB 0 0 1324829887

19:18

25-Дек-11

Российские фильмы до 2016 ·· Бриллиантовая рука (Леонид Гайдай) [1968, комедия, криминал, приключения, семейный, BDRip-AVC] L 23578765732.2 GB 0 0 1324825208

18:00

25-Дек-11

Российские фильмы до 2016 ·· Бриллиантовая рука (Леонид Гайдай) [1968, Россия, Комедия, DVD9] [Полная реставрация изображения и звука.] Sub Rus onegin 77138677767.18 GB 0 0 1324803301

11:55

25-Дек-11

Российские фильмы до 2016 ·· Бриллиантовая рука (Леонид Гайдай) [1968, СССР, Комедия, криминал, приключения, семейный, BDRemux 1080p] Original Rus L 1815662397516.91 GB 0 0 1324798460

10:34

25-Дек-11

Российские фильмы до 2016 ·· Бриллиантовая рука (Леонид Гайдай) [1968 г., комедия, криминал, приключения, семейный, BDRip] L 15429345281.44 GB 0 0 1324794663

09:31

25-Дек-11

Российские фильмы до 2016 ·· Бриллиантовая рука (Леонид Гайдай) [1968 г., комедия, криминал, приключения, семейный, Blu-Ray 1080p] L 2450947688222.83 GB 0 0 1324725456

14:17

24-Дек-11

Еще никто не оставлял запись к записи скачать торрент Бриллиантовая рука . Будь первым!

!Обратная связь