Скачать через торрент [FILM] Бойлерная Boiler Room Фильм бесплатно в хорошем качестве torrent

Скачивайте на UnionPeer.org фильмы через торрент без регистрации. Новинки кино в хорошем качестве через торрент. На UnionPeer.org можно скачать через торрент фильмы 2014 и 2015 годов. Самые новые фильмы.

Скачать торрент [FILM] Бойлерная Boiler Room бесплатно через .torrent фильм мультфильм сериал

Если у вас наблюдаются проблемы со скриншотами, переходом по ссылками, скачиванием торрентов - проблемы в блокировщике рекламы AdBlock. #хорошегоДня!


Статистика раздачи
Размер:  668 MB   |    Зарегистрирован:  5 лет 2 месяца   |    .torrent скачан:  48 раз   |   
Раздают:  1  
   
Загрузка...
 
Автор Сообщение

Galfimbul

avatar Galfimbul


Бойлерная
Оригинальное название: Boiler Room
Год выпуска: 2000 г.
Страна: США
Жанр: триллер, драма, криминал
Продолжительность: 01:59:29
Перевод: Профессиональный (многоголосый закадровый)
Режиссер: Бен Янгер / Ben Younger

В ролях: Джованни Рибизи /Giovanni Ribisi/, Вин Дизель /Vin Diesel/, Ниа Лонг /Nia Long/, Никки Кэтт /Nicky Katt/, Скотт Каан /Scott Caan/, Рон Рифкин /Ron Rifkin/, Бен Аффлек /Ben Affleck/

Описание: Задавались ли вы когда-нибудь вопросом, почему некоторые люди выигрывают в лотерею миллионы долларов, а вы нет? Почему вы зарабатываете 4 тыс. долларов в год, а секретарша из «Майкрософт» 140 тыс. долларов? Почему какой-то балбес раскатывает на новеньком «Феррари», а вы с трудом накопили на подержанный «Вольво»? Неужели эти люди умнее или лучше вас ?!?
Эти же вопросы задавал себе и Сэт Девис, молодой шулер, открывший в своей квартире небольшое подпольное казино. Судьба к нему благосклонна и один из клиентов, неимоверно богатый молодой человек, предлагает ему работать на некую брокерскую фирму, где месячная зарплата превышает годовой доход от его казино. Сет счастлив, его мечта осуществляется, деньги льются рекой, но вскоре он начинает понимать, что за все в жизни приходится расплачиваться…

Качество видео: HDRip
Формат: MP4
Видео кодек: H.264
Аудио кодек: AAC
Видео: MPEG4 Video (H264) 480x272 23.976fps 650 kbps
Аудио: AAC 48000Hz stereo 129 kbps
General
Complete name : БОЙЛЕРНАЯ.mp4
Format : MPEG-4
Format profile : Base Media
Codec ID : isom
File size : 668 MiB
Duration : 1h 59mn
Overall bit rate : 781 Kbps
Encoded date : UTC 2011-10-22 17:22:25
Tagged date : UTC 2011-10-22 17:22:25

Video
ID : 1
Format : AVC
Format/Info : Advanced Video Codec
Format profile : <a href="mailto:Main@L2.1" class="postLink">Main@L2.1</a>
Format settings, CABAC : Yes
Format settings, ReFrames : 1 frame
Format settings, GOP : N=1
Codec ID : avc1
Codec ID/Info : Advanced Video Coding
Duration : 1h 59mn
Bit rate mode : Variable
Bit rate : 650 Kbps
Maximum bit rate : 1 804 Kbps
Width : 480 pixels
Height : 272 pixels
Display aspect ratio : 16:9
Frame rate mode : Constant
Frame rate : 23.976 fps
Color space : YUV
Chroma subsampling : 4:2:0
Bit depth : 8 bits
Scan type : Progressive
Bits/(Pixel*Frame) : 0.208
Stream size : 556 MiB (83%)
Writing library : x264 core 65 r999kMod cc51047
Encoding settings : cabac=1 / ref=1 / deblock=1:0:0 / analyse=0x1:0x111 / me=hex / subme=6 / psy_rd=1.0:0.0 / mixed_ref=0 / me_range=16 / chroma_me=1 / trellis=0 / 8x8dct=0 / cqm=0 / deadzone=21,11 / chroma_qp_offset=-2 / threads=2 / thread_queue=2 / nr=0 / decimate=1 / mbaff=0 / bframes=0 / keyint=250 / keyint_min=25 / scenecut=40(pre) / rc=2pass / bitrate=650 / ratetol=1.0 / qcomp=0.60 / qpmin=10 / qpmax=51 / qpstep=4 / cplxblur=20.0 / qblur=0.5 / ip_ratio=1.40 / aq=1:1.00
Encoded date : UTC 2011-10-22 17:22:25
Tagged date : UTC 2011-10-22 17:24:44

Audio
ID : 2
Format : AAC
Format/Info : Advanced Audio Codec
Format version : Version 4
Format profile : LC
Format settings, SBR : No
Codec ID : 40
Duration : 1h 59mn
Bit rate mode : Variable
Bit rate : 129 Kbps
Maximum bit rate : 141 Kbps
Channel(s) : 2 channels
Channel positions : Front: L R
Sampling rate : 48.0 KHz
Stream size : 110 MiB (16%)
Encoded date : UTC 2011-10-22 17:24:33
Tagged date : UTC 2011-10-22 17:24:44



Трекер:  [ 02-Июн-2012 17:51 ]

  

Скачать .torrent

Размер .torrent файла 13 KB


Размер: 668 MB
Хэш (hash) релиза: 71ee446769ff577abc2fad517bebb27dd49ada90
Подписка на обновления:

Еще никто не оставлял запись к записи скачать торрент [FILM] Бойлерная Boiler Room . Будь первым!

!Обратная связь