Скачать через торрент [FILM] Дети шпионов 3: Игра окончена Spy Kids 3: Game Over Фильм бесплатно в хорошем качестве torrent

Скачивайте на UnionPeer.org фильмы через торрент без регистрации. Новинки кино в хорошем качестве через торрент. На UnionPeer.org можно скачать через торрент фильмы 2014 и 2015 годов. Самые новые фильмы.

Скачать торрент [FILM] Дети шпионов 3: Игра окончена Spy Kids 3: Game Over бесплатно через .torrent фильм мультфильм сериал

Если у вас наблюдаются проблемы со скриншотами, переходом по ссылками, скачиванием торрентов - проблемы в блокировщике рекламы AdBlock. #хорошегоДня!


Статистика раздачи
Размер:  460 MB   |    Зарегистрирован:  5 лет 2 месяца   |    .torrent скачан:  46 раз   |   
Раздают:  1  
   
Загрузка...
 
Автор Сообщение

Galfimbul

avatar Galfimbul


Дети шпионов 3: Игра окончена / Spy Kids 3: Game Over
Оригинальное название: Spy Kids 3: Game Over
Год выпуска: 2003
Страна: США
Жанр: Боевик, Комедия, Приключения, Семейный, Фантастика
Продолжительность: 01:22:17
Перевод: Профессиональный (полное дублирование)
Режиссер: Роберт Родригес / Robert Rodriguez

В ролях: Антонио Бандерас/Antonio Banderas/, Карла Гуджино/Carla Gugino/, Алекса Вега/Alexa Vega/, Дэрил Сабара/Daryl Sabara/, Рикардо Монтальбан/Ricardo Montalban/, Холланд Тэйлор/Holland Taylor/, Сильвестр Сталлоне/Sylvester Stallone/, Майк Джадж/Mike Judge/, Сэлма Хайек/Salma Hayek/

Описание: Шпионы становятся старше, но и враги — все сильнее и изощреннее. Теперь им предстоит вступить в схватку с самим Сильвестром Сталлоне, чтобы спасти не только свои жизни, но и целый мир… Несовершеннолетние агенты Джуни и Кармен Кортез отправляются на выполнение нового задания. На этот раз их ждет путешествие по виртуальному миру 3-D видеоигры, разработанной для того, чтобы существа, населяющие ее явились в реальный мир. Дочь шпионов Кармен попалась в сети компьютерной игры, созданной зловещим Мастером Игрушек. Теперь ее брат должен спасти сестру, а заодно и весь мир. И помогать ему в этом будут его родители!
Качество: HDRip
Формат: MP4
Видео кодек: H.264
Аудио кодек: AAC
Видео: MPEG4 Video (H264) 480x272 23.976fps 650 kbps
Аудио: AAC 48000Hz stereo 129 kbps
General
Complete name : ДЕТИ ШПИОНОВ 3.mp4
Format : MPEG-4
Format profile : Base Media
Codec ID : isom
File size : 460 MiB
Duration : 1h 22mn
Overall bit rate : 782 Kbps
Encoded date : UTC 2011-08-10 10:38:34
Tagged date : UTC 2011-08-10 10:38:34

Video
ID : 1
Format : AVC
Format/Info : Advanced Video Codec
Format profile : <a href="mailto:Main@L2.1" class="postLink">Main@L2.1</a>
Format settings, CABAC : Yes
Format settings, ReFrames : 1 frame
Codec ID : avc1
Codec ID/Info : Advanced Video Coding
Duration : 1h 22mn
Bit rate mode : Variable
Bit rate : 650 Kbps
Maximum bit rate : 2 022 Kbps
Width : 480 pixels
Height : 272 pixels
Display aspect ratio : 16:9
Frame rate mode : Constant
Frame rate : 23.976 fps
Color space : YUV
Chroma subsampling : 4:2:0
Bit depth : 8 bits
Scan type : Progressive
Bits/(Pixel*Frame) : 0.208
Stream size : 383 MiB (83%)
Writing library : x264 core 65 r999kMod cc51047
Encoding settings : cabac=1 / ref=1 / deblock=1:0:0 / analyse=0x1:0x111 / me=hex / subme=6 / psy_rd=1.0:0.0 / mixed_ref=0 / me_range=16 / chroma_me=1 / trellis=0 / 8x8dct=0 / cqm=0 / deadzone=21,11 / chroma_qp_offset=-2 / threads=2 / thread_queue=2 / nr=0 / decimate=1 / mbaff=0 / bframes=0 / keyint=250 / keyint_min=25 / scenecut=40(pre) / rc=2pass / bitrate=650 / ratetol=1.0 / qcomp=0.60 / qpmin=10 / qpmax=51 / qpstep=4 / cplxblur=20.0 / qblur=0.5 / ip_ratio=1.40 / aq=1:1.00
Encoded date : UTC 2011-08-10 10:38:34
Tagged date : UTC 2011-08-10 10:39:55

Audio
ID : 2
Format : AAC
Format/Info : Advanced Audio Codec
Format version : Version 4
Format profile : LC
Format settings, SBR : No
Codec ID : 40
Duration : 1h 22mn
Bit rate mode : Variable
Bit rate : 129 Kbps
Maximum bit rate : 188 Kbps
Channel(s) : 2 channels
Channel positions : Front: L R
Sampling rate : 48.0 KHz
Stream size : 75.9 MiB (17%)
Encoded date : UTC 2011-08-10 10:39:52
Tagged date : UTC 2011-08-10 10:39:55



Трекер:  [ 02-Июн-2012 17:51 ]

  

Скачать .torrent

Размер .torrent файла 18 KB


Размер: 460 MB
Хэш (hash) релиза: b7065ad1bedd63a56676a6c1c3af542279befce0
Подписка на обновления:

Еще никто не оставлял запись к записи скачать торрент [FILM] Дети шпионов 3: Игра окончена Spy Kids 3: Game Over . Будь первым!

!Обратная связь