Скачать через торрент [FILM] Поколение П Generation П Фильм бесплатно в хорошем качестве torrent

Скачивайте на UnionPeer.org фильмы через торрент без регистрации. Новинки кино в хорошем качестве через торрент. На UnionPeer.org можно скачать через торрент фильмы 2014 и 2015 годов. Самые новые фильмы.

Скачать торрент [FILM] Поколение П Generation П бесплатно через .torrent фильм мультфильм сериал

Если у вас наблюдаются проблемы со скриншотами, переходом по ссылками, скачиванием торрентов - проблемы в блокировщике рекламы AdBlock. #хорошегоДня!


Статистика раздачи
Размер:  576 MB   |    Зарегистрирован:  5 лет 2 месяца   |    .torrent скачан:  80 раз   |   
Раздают:  1  
   
Загрузка...
 
Автор Сообщение

Galfimbul

avatar Galfimbul


«Поколение П»

Оригинальное название: Generation П
Год выпуска: 2011 г.
Страна: Россия
Жанр: фантастика / драма / комедия
Продолжительность: 01:56:20
Перевод: Не требуется
Режиссер: Виктор Гинзбург
В ролях: Владимир Епифанцев, Михаил Ефремов, Андрей Фомин, Владимир Меньшов, Александр Гордон, Олег Тактаров, Рената Литвинова, Андрей Панин, Сергей Шнуров, Леонид Парфенов.

Описание: Основанный на культовом романе Виктора Пелевина фильм «Generation П» во многом строится на галлюцинациях — включая речь Че Гевары о том, почему и как телевидение разрушает человека. Однако через изменённую реальность проступает кропотливо восстановленная атмосфера Москвы в 90-е годы, на фоне которой и разворачивается действие картины. Вавилен Татарский, нашедший себя в новой жизни в роли сотрудника рекламного агентства, занимается продвижением западных брендов, адаптируя их под «русскую ментальность». Умный и местами чудовищно смешной, насыщенный спецэффектами и откровениями фильм делает простой и понятной сложную историю о том, как бывшие пионеры стали рекламщиками на службе у богини Иштар, а «поколение Пепси» выбрало Coca-Cola.
Качество видео: HDRip
Формат: MP4
Видео кодек: H.264
Аудио кодек: AAC
Видео: x264, 480x208, 561kbps, 23.976fps
Аудио: aac-lc, 128kbps, 2ch, 48kHz
General
Complete name : C:\torrents\!others\vospi\pokolenie-p-psp.mp4
Format : MPEG-4
Format profile : Sony PSP
Codec ID : MSNV
File size : 576 MiB
Duration : 1h 56mn
Overall bit rate mode : Variable
Overall bit rate : 692 Kbps
Encoded date : UTC 2012-01-18 08:12:52
Tagged date : UTC 2012-01-18 08:12:52

Video
ID : 1
Format : AVC
Format/Info : Advanced Video Codec
Format profile : <a href="mailto:Main@L3.0" class="postLink">Main@L3.0</a>
Format settings, CABAC : Yes
Format settings, ReFrames : 3 frames
Codec ID : avc1
Codec ID/Info : Advanced Video Coding
Duration : 1h 56mn
Bit rate : 561 Kbps
Maximum bit rate : 4 860 Kbps
Width : 480 pixels
Height : 208 pixels
Display aspect ratio : 2.35:1
Frame rate mode : Constant
Frame rate : 23.976 fps
Color space : YUV
Chroma subsampling : 4:2:0
Bit depth : 8 bits
Scan type : Progressive
Bits/(Pixel*Frame) : 0.234
Stream size : 467 MiB (81%)
Writing library : x264 core 116 r2074 2641b9e
Encoding settings : cabac=1 / ref=3 / deblock=1:0:0 / analyse=0x1:0x111 / me=umh / subme=9 / psy=1 / psy_rd=1.00:0.00 / mixed_ref=1 / me_range=16 / chroma_me=1 / trellis=2 / 8x8dct=0 / cqm=0 / deadzone=21,11 / fast_pskip=0 / chroma_qp_offset=-2 / threads=6 / sliced_threads=0 / nr=0 / decimate=1 / interlaced=0 / bluray_compat=0 / constrained_intra=0 / bframes=16 / b_pyramid=0 / b_adapt=0 / b_bias=0 / direct=3 / weightb=1 / open_gop=0 / weightp=0 / keyint=250 / keyint_min=23 / scenecut=40 / intra_refresh=0 / rc_lookahead=40 / rc=crf / mbtree=1 / crf=18.0 / qcomp=0.60 / qpmin=10 / qpmax=51 / qpstep=4 / vbv_maxrate=10000 / vbv_bufsize=10000 / crf_max=0.0 / nal_hrd=none / ip_ratio=1.40 / aq=1:1.00
Encoded date : UTC 2012-01-17 20:34:15
Tagged date : UTC 2012-01-18 08:13:02

Audio
ID : 2
Format : AAC
Format/Info : Advanced Audio Codec
Format profile : LC
Codec ID : 40
Duration : 1h 56mn
Bit rate mode : Variable
Bit rate : 128 Kbps
Maximum bit rate : 136 Kbps
Channel(s) : 2 channels
Channel positions : Front: L R
Sampling rate : 48.0 KHz
Compression mode : Lossy
Stream size : 106 MiB (18%)
Language : Russian
Encoded date : UTC 2012-01-18 08:13:00
Tagged date : UTC 2012-01-18 08:13:02


Трекер:  [ 02-Июн-2012 17:18 ]

  

Скачать .torrent

Размер .torrent файла 11 KB


Размер: 576 MB
Хэш (hash) релиза: 8b5573d7250eaa8b943f42125f813415a1ed25cb
Подписка на обновления:

Еще никто не оставлял запись к записи скачать торрент [FILM] Поколение П Generation П . Будь первым!

!Обратная связь