Скачать через торрент [FILM] Сумерки. Сага. Рассвет: Часть 1 The Twilight Saga: Breaking Dawn - Part 1 Фильм бесплатно в хорошем качестве torrent

Скачивайте на UnionPeer.org фильмы через торрент без регистрации. Новинки кино в хорошем качестве через торрент. На UnionPeer.org можно скачать через торрент фильмы 2014 и 2015 годов. Самые новые фильмы.

Скачать торрент [FILM] Сумерки. Сага. Рассвет: Часть 1 The Twilight Saga: Breaking Dawn - Part 1 бесплатно через .torrent фильм мультфильм сериал

Если у вас наблюдаются проблемы со скриншотами, переходом по ссылками, скачиванием торрентов - проблемы в блокировщике рекламы AdBlock. #хорошегоДня!


Статистика раздачи
Размер:  680 MB   |    Зарегистрирован:  5 лет 2 месяца   |    .torrent скачан:  78 раз   |   
Раздают:  1  
   
Загрузка...
 
Автор Сообщение

Galfimbul

avatar Galfimbul


Сумерки. Сага. Рассвет: Часть 1«Вечность - это только начало»

Оригинальное название: The Twilight Saga: Breaking Dawn - Part 1
Год выпуска: 2011 г.
Страна: США
Жанр: Фэнтези, драма, мелодрама
Продолжительность: 01:57:08
Перевод: Профессиональный (дублированный)
Дублёры: Наталья Фищук (Bella Swan), Александр Гаврилин (Edward Cullen), Илья Хвостиков (Jacob Black), Юрий Деркач (Charlie Swan), Василий Дахненко (Dr. Carlisle Cullen), Пётр Иващенко (Emmett Cullen), Екатерина Африкантова (Rosalie Hale), Илья Бледный (Jasper Hale), Вероника Саркисова (Alice Cullen), Борис Токарев (Billy), Ирина Пономарева (Renée), Полина Щербакова (Jessica)
Режиссер: Билл Кондон / Bill Condon
В ролях: Кристен Стюарт (Bella Swan,), Роберт Паттинсон (Edward Cullen,), Тэйлор Лотнер (Jacob Black,), Билли Бёрк (Charlie Swan), Питер Фачинелли (Dr. Carlisle Cullen), Элизабет Ризер (Esme Cullen), Келлан Латс (Emmett Cullen), Никки Рид (Rosalie Hale), Джексон Рэтбоун (Jasper Hale), Эшли Грин (Alice Cullen), Джил Бирмингем (Billy), Сара Кларк (Renée)
Описание: В четвертой части Белла Свон оказывается перед непростым выбором - сохранить жизнь себе или своему ребенку (наполовину вампиру, наполовину человеку). Она решает оставить малыша, но Эдвард и остальные члены семьи Каллен категорически против.
Помощи Белле ждать не от кого, но она приходит неожиданно, от того, от кого её совсем не ждали. Вдвоем Белла и Розали пытаются сохранить жизнь малышу, даже не догадываясь, к каким ужасающим последствиям это приведет.
Качество видео: HDRip
Формат: MP4
Видео кодек: H.264
Аудио кодек: AAC
Видео: 680 Kbps, 480*208, at 23.976 fps, H264
Аудио: 128 kbps, 48.0 KHz, 2 channels, AAC

General
Complete name : D:\Мои Раздачи(PSP)\[FILM]The Twilight Saga. Breaking Dawn - Part 1\The Twilight Saga. Breaking Dawn - Part 1.mp4
Format : MPEG-4
Format profile : Base Media
Codec ID : isom
File size : 680 MiB
Duration : 1h 57mn
Overall bit rate mode : Variable
Overall bit rate : 811 Kbps
Encoded date : UTC 2012-02-12 14:31:06
Tagged date : UTC 2012-02-12 14:31:06

Video
ID : 1
Format : AVC
Format/Info : Advanced Video Codec
Format profile : <a href="mailto:Main@L3.0" class="postLink">Main@L3.0</a>
Format settings, CABAC : Yes
Format settings, ReFrames : 3 frames
Codec ID : avc1
Codec ID/Info : Advanced Video Coding
Duration : 1h 57mn
Bit rate : 680 Kbps
Maximum bit rate : 5 204 Kbps
Width : 480 pixels
Height : 208 pixels
Display aspect ratio : 2.35:1
Frame rate mode : Constant
Frame rate : 23.976 fps
Color space : YUV
Chroma subsampling : 4:2:0
Bit depth : 8 bits
Scan type : Progressive
Bits/(Pixel*Frame) : 0.284
Stream size : 570 MiB (84%)
Writing library : x264 core 115 r1937 aa21558
Encoding settings : cabac=1 / ref=3 / deblock=1:1:1 / analyse=0x1:0x131 / me=umh / subme=10 / psy=1 / psy_rd=1.00:0.00 / mixed_ref=1 / me_range=16 / chroma_me=1 / trellis=2 / 8x8dct=0 / cqm=0 / deadzone=21,11 / fast_pskip=0 / chroma_qp_offset=-2 / threads=6 / sliced_threads=0 / nr=0 / decimate=1 / interlaced=0 / bluray_compat=0 / constrained_intra=0 / bframes=3 / b_pyramid=0 / b_adapt=2 / b_bias=0 / direct=3 / weightb=1 / open_gop=0 / weightp=2 / keyint=250 / keyint_min=23 / scenecut=40 / intra_refresh=0 / rc_lookahead=60 / rc=2pass / mbtree=1 / bitrate=680 / ratetol=1.0 / qcomp=0.70 / qpmin=0 / qpmax=69 / qpstep=4 / cplxblur=20.0 / qblur=0.5 / ip_ratio=1.40 / aq=1:0.60
Encoded date : UTC 2012-02-12 14:31:06
Tagged date : UTC 2012-02-12 14:31:14

Audio
ID : 2
Format : AAC
Format/Info : Advanced Audio Codec
Format profile : LC
Codec ID : 40
Duration : 1h 57mn
Bit rate mode : Variable
Bit rate : 128 Kbps
Maximum bit rate : 204 Kbps
Channel(s) : 2 channels
Channel positions : Front: L R
Sampling rate : 48.0 KHz
Compression mode : Lossy
Stream size : 107 MiB (16%)
Encoded date : UTC 2012-02-12 14:31:13
Tagged date : UTC 2012-02-12 14:31:14



Трекер:  [ 02-Июн-2012 17:12 ]

  

Скачать .torrent

Размер .torrent файла 14 KB


Размер: 680 MB
Хэш (hash) релиза: 755defab57dca32366465f8bf87f322b38e2a922
Подписка на обновления:

Еще никто не оставлял запись к записи скачать торрент [FILM] Сумерки. Сага. Рассвет: Часть 1 The Twilight Saga: Breaking Dawn - Part 1 . Будь первым!

!Обратная связь