Скачать через торрент Я видел дьявола I Saw The Devil Фильм бесплатно в хорошем качестве torrent

Скачивайте на UnionPeer.org фильмы через торрент без регистрации. Новинки кино в хорошем качестве через торрент. На UnionPeer.org можно скачать через торрент фильмы 2014 и 2015 годов. Самые новые фильмы.

Скачать торрент Я видел дьявола I Saw The Devil бесплатно через .torrent фильм мультфильм сериал

Если у вас наблюдаются проблемы со скриншотами, переходом по ссылками, скачиванием торрентов - проблемы в блокировщике рекламы AdBlock. #хорошегоДня!


Статистика раздачи
Размер:  763 MB   |    Зарегистрирован:  5 лет 2 месяца   |    .torrent скачан:  63 раза   |   
Раздают:  1  
   
Загрузка...
 
Автор Сообщение

Galfimbul

avatar Galfimbul




Я видел дьявола

Оригинальное название: I Saw The Devil
Год выпуска: 2010
Страна: Южная Корея
Жанр: Триллер, драма
Продолжительность: 02:24:00
Режиссер: Ким Чжи Ун
В ролях: Ли Бён Хон, Мин-Сик Чои, Гук-хван Чон, Ho-jin Jeon, Oh San-ha, Kim Yoon-seo
Перевод: Авторский (одноголосый закадровый) @PD (отсутствует ненормативная лексика)
Описание: Чан Гёнчхоль – опасный психопат, который насилует и зверски убивает женщин. Он совершил множество жутких преступлений, однако так и остался недосягаемым для полиции. Однажды жертвой маньяка становится Чан Джуён, дочь начальника отделения полиции в отставке. С его помощью жених погибшей девушки, агент разведслужбы Ким Сухён, начинает самостоятельно выслеживать убийцу. Но не для того, чтобы отдать в руки правосудия, а чтобы превратить маньяка в жертву…
Качество: HDRip
Формат: MP4
Видео кодек: H.264
Аудио кодек: AAC
Видео: 480x272 (16:9), 23.976 fps, H.264, ~ 608 kbps avg, 0.194 bit/pixel (2-pass Ultra)
Аудио: Russian 48 kHz, AAC-LC, 2/0 (L,R) ch, ~128 kbps

General
Complete name : D:\........\ISTD(PSP)\I Saw The Devil.2010.HDRip.mp4
Format : MPEG-4
Format profile : Base Media
Codec ID : isom
File size : 763 MiB
Duration : 2h 24mn
Overall bit rate : 741 Kbps
Encoded date : UTC 2011-08-28 18:39:00
Tagged date : UTC 2011-08-28 18:39:00

Video
ID : 1
Format : AVC
Format/Info : Advanced Video Codec
Format profile : <a href="mailto:Main@L3.0" class="postLink">Main@L3.0</a>
Format settings, CABAC : Yes
Format settings, ReFrames : 3 frames
Codec ID : avc1
Codec ID/Info : Advanced Video Coding
Duration : 2h 24mn
Bit rate mode : Variable
Bit rate : 608 Kbps
Maximum bit rate : 4 567 Kbps
Width : 480 pixels
Height : 272 pixels
Display aspect ratio : 16:9
Frame rate mode : Constant
Frame rate : 23.976 fps
Color space : YUV
Chroma subsampling : 4:2:0
Bit depth : 8 bits
Scan type : Progressive
Bits/(Pixel*Frame) : 0.194
Stream size : 626 MiB (82%)
Writing library : x264 core 56 svn-667M
Encoding settings : cabac=1 / ref=2 / deblock=1:0:0 / analyse=0x1:0x131 / me=umh / subme=6 / brdo=1 / mixed_ref=1 / me_range=16 / chroma_me=1 / trellis=1 / 8x8dct=0 / cqm=0 / deadzone=21,11 / chroma_qp_offset=0 / threads=2 / nr=0 / decimate=1 / mbaff=0 / bframes=3 / b_pyramid=0 / b_adapt=1 / b_bias=0 / direct=3 / wpredb=1 / bime=1 / keyint=250 / keyint_min=25 / scenecut=40(pre) / rc=2pass / bitrate=608 / ratetol=1.0 / rceq='blurCplx^(1-qComp)' / qcomp=0.60 / qpmin=10 / qpmax=51 / qpstep=4 / cplxblur=20.0 / qblur=0.5 / ip_ratio=1.40 / pb_ratio=1.30
Encoded date : UTC 2011-08-28 18:39:00
Tagged date : UTC 2011-08-28 18:40:30

Audio
ID : 2
Format : AAC
Format/Info : Advanced Audio Codec
Format profile : LC
Codec ID : 40
Duration : 2h 24mn
Bit rate mode : Variable
Bit rate : 129 Kbps
Maximum bit rate : 155 Kbps
Channel(s) : 2 channels
Channel positions : Front: L R
Sampling rate : 48.0 KHz
Compression mode : Lossy
Stream size : 133 MiB (17%)
Encoded date : UTC 2011-08-28 18:40:08
Tagged date : UTC 2011-08-28 18:40:30



Трекер:  [ 01-Июн-2012 13:52 ]

  

Скачать .torrent

Размер .torrent файла 15 KB


Размер: 763 MB
Хэш (hash) релиза: 73897e215430c9cb077a07cb4342d4ed37502b8a
Подписка на обновления:

Еще никто не оставлял запись к записи скачать торрент Я видел дьявола I Saw The Devil . Будь первым!

!Обратная связь