Скачать через торрент Дневной свет Daylight Фильм бесплатно в хорошем качестве torrent

Скачивайте на UnionPeer.org фильмы через торрент без регистрации. Новинки кино в хорошем качестве через торрент. На UnionPeer.org можно скачать через торрент фильмы 2014 и 2015 годов. Самые новые фильмы.

Скачать торрент Дневной свет Daylight бесплатно через .torrent фильм мультфильм сериал

Если у вас наблюдаются проблемы со скриншотами, переходом по ссылками, скачиванием торрентов - проблемы в блокировщике рекламы AdBlock. #хорошегоДня!


Статистика раздачи
Размер:  603 MB   |    Зарегистрирован:  5 лет 2 месяца   |    .torrent скачан:  48 раз   |   
Раздают:  1  
   
Загрузка...
 
Автор Сообщение

Galfimbul

avatar Galfimbul


Дневной свет / Daylight
Оригинальное название: Daylight
Год выпуска: 1996
Страна: США
Жанр: катастрофа, приключения, драма
Продолжительность: 01:54:31
Перевод: Профессиональный (полное дублирование)
Режиссер: Роб Коэн / Rob Cohen

В ролях: Сильвестр Сталлоне /Sylvester Stallone/, Эми Бреннемэн /Amy Brenneman/, Вигго Мортенсен /Viggo Mortensen/, Дэн Хедайя /Dan Hedaya/, Бэрри Ньюмэн /Barry Newman/, Джей О. Сэндерс /Jay O. Sanders/, Кэрен Янг /Karen Young

Описание: Машина таксиста Кита Латуры в момент взрыва оказывается на въезде в огромный подводный тоннель, ведущий в Нью-Джерси. Огромный огненный шар проносится по тоннелю. В живых остается только дюжина испуганных людей. Без посторонней помощи им не выбраться. Кит Латура совершает отчаянную попытку пробраться в тоннель и вывести из него людей. Много лет назад он работал в службе спасения, но был уволен, когда сотрудники, находившиеся у него в подчинении, погибли, выполняя его приказы. Теперь у Латуры появляется шанс искупить свою вину. Он должен спасти беззащитных людей.
Качество: HDRip
Формат: MP4
Видео кодек: H.264
Аудио кодек: AAC
Видео: MPEG4 Video (H264) 480x272 23.976fps 604 kbps
Аудио: AAC 48000Hz stereo 129 kbps
General
Complete name : ДНЕВНОЙ СВЕТ.mp4
Format : MPEG-4
Format profile : Base Media
Codec ID : isom
File size : 603 MiB
Duration : 1h 54mn
Overall bit rate : 736 Kbps
Encoded date : UTC 2010-12-26 17:55:03
Tagged date : UTC 2010-12-26 17:55:03

Video
ID : 1
Format : AVC
Format/Info : Advanced Video Codec
Format profile : <a href="mailto:Main@L3.0" class="postLink">Main@L3.0</a>
Format settings, CABAC : Yes
Format settings, ReFrames : 2 frames
Codec ID : avc1
Codec ID/Info : Advanced Video Coding
Duration : 1h 54mn
Bit rate mode : Variable
Bit rate : 604 Kbps
Nominal bit rate : 608 Kbps
Maximum bit rate : 3 461 Kbps
Width : 480 pixels
Height : 272 pixels
Display aspect ratio : 16:9
Frame rate mode : Constant
Frame rate : 23.976 fps
Resolution : 8 bits
Colorimetry : 4:2:0
Scan type : Progressive
Bits/(Pixel*Frame) : 0.193
Stream size : 494 MiB (82%)
Writing library : x264 core 65 r999kMod cc51047
Encoding settings : cabac=1 / ref=2 / deblock=1:0:0 / analyse=0x1:0x131 / me=umh / subme=6 / psy_rd=1.0:0.0 / mixed_ref=1 / me_range=16 / chroma_me=1 / trellis=1 / 8x8dct=0 / cqm=0 / deadzone=21,11 / chroma_qp_offset=-2 / threads=2 / thread_queue=2 / nr=0 / decimate=1 / mbaff=0 / bframes=3 / b_pyramid=0 / b_adapt=1 / b_bias=0 / direct=1 / wpredb=1 / keyint=250 / keyint_min=25 / scenecut=40(pre) / rc=abr / bitrate=608 / ratetol=1.0 / qcomp=0.60 / qpmin=10 / qpmax=51 / qpstep=4 / ip_ratio=1.40 / pb_ratio=1.30 / aq=1:1.00
Encoded date : UTC 2010-12-26 17:55:03
Tagged date : UTC 2010-12-26 17:57:08

Audio
ID : 2
Format : AAC
Format/Info : Advanced Audio Codec
Format version : Version 4
Format profile : LC
Format settings, SBR : No
Codec ID : 40
Duration : 1h 54mn
Bit rate mode : Variable
Bit rate : 129 Kbps
Maximum bit rate : 159 Kbps
Channel(s) : 2 channels
Channel positions : L R
Sampling rate : 48.0 KHz
Stream size : 106 MiB (18%)
Encoded date : UTC 2010-12-26 17:57:01
Tagged date : UTC 2010-12-26 17:57:08



Трекер:  [ 01-Июн-2012 13:51 ]

  

Скачать .torrent

Размер .torrent файла 12 KB


Размер: 603 MB
Хэш (hash) релиза: bac9ca1deadaedf2dd043c0d61fa45271ebe95c3
Подписка на обновления:

Торренты, похожие на Дневной свет Daylight скачать торрент

Форум Название Автор Размер S L Добавлен
Зарубежные фильмы до 2016 ·· Дневной свет / Daylight (Роб Коэн / Rob Cohen) [1996 г., Катастрофа, триллер, HDRip] Dub Galfimbul 779098112743 MB 0 0 1365326408

12:20

7-Апр-13

Зарубежные фильмы до 2016 ·· Дневной свет / Daylight (Роб Коэн / Rob Cohen) [1996, Боевик, триллер, приключения, HDRip] _N_ 15650017281.46 GB 0 0 1326049315

22:01

8-Янв-12

Зарубежные фильмы до 2016 ·· Дневной свет / Daylight (Роб Коэн / Rob Cohen) [1996, США, Боевик, приключения, триллер, BDRip 720p] DUB AVO Гаврилов + AVO Живов L 72286051676.73 GB 0 0 1305532240

10:50

16-Май-11

Зарубежные фильмы до 2016 ·· Дневной свет / Daylight (Роб Коэн / Rob Cohen) [1996, США, боевик, триллер, приключения, BDRemux 1080p] DUB Sub eng + original eng out 3683244866834.3 GB 0 0 1296755670

20:54

3-Фев-11

Зарубежные фильмы до 2016 ·· Дневной свет / Daylight (Роб Коэн / Rob Cohen) [1996, США, боевик, триллер, приключения, Blu-ray 1080p] DUB Sub eng + original eng sebladec 3689766428034.36 GB 0 0 1296329712

22:35

29-Янв-11

Зарубежные фильмы до 2016 ·· Дневной свет / Daylight (Роб Коэн / Rob Cohen) [1996, США, катастрофа, приключения, драма, HDRip-AVC] DUB sebladec 23398152442.18 GB 0 0 1293406977

02:42

27-Дек-10

Зарубежные фильмы до 2016 ·· Дневной свет / Daylight (Роб Коэн / Rob Cohen) [1996 г., боевик, триллер, HDRip] Dub + MVO (СТС) sebladec 20135976961.88 GB 0 0 1293406818

02:40

27-Дек-10

Еще никто не оставлял запись к записи скачать торрент Дневной свет Daylight . Будь первым!

!Обратная связь