Скачать через торрент Убить пересмешника To kill a mockingbird Фильм бесплатно в хорошем качестве torrent

Скачивайте на UnionPeer.org фильмы через торрент без регистрации. Новинки кино в хорошем качестве через торрент. На UnionPeer.org можно скачать через торрент фильмы 2014 и 2015 годов. Самые новые фильмы.

Скачать торрент Убить пересмешника To kill a mockingbird бесплатно через .torrent фильм мультфильм сериал

Если у вас наблюдаются проблемы со скриншотами, переходом по ссылками, скачиванием торрентов - проблемы в блокировщике рекламы AdBlock. #хорошегоДня!


Статистика раздачи
Размер:  693 MB   |    Зарегистрирован:  5 лет 2 месяца   |    .torrent скачан:  42 раза   |   
Раздают:  1  
   
Загрузка...
 
Автор Сообщение

Galfimbul

avatar Galfimbul


Убить пересмешника / To kill a mockingbird
Оригинальное название: To kill a mockingbird
Год выпуска: 1962
Страна: США
Жанр: Драма, Криминал
Продолжительность: 2:03:52
Перевод: Профессиональный (многоголосый, закадровый)
Режиссер: Роберт Маллиган / Robert Mulligan

В ролях: Грегори Пек / Gregory Peck, Мэри Бэдхэм / Mary Badham, Филлип Элфорд / Phillip Alford, Роберт Дювалл / Robert Duvall, Джон Меджна / John Megna, Фрэнк Овертон / Frank Overton, Розмари Мерфи / Rosemary Murphy, Рут Уайт / Ruth White, Брок Питерс / Brock Peters, Эстелль Эванс / Estelle Evans, Элис Гостли / Alice Ghostley, Пол Фикс / Paul Fix, Коллин Уилкокс Пэкстон / Collin Wilcox Paxton, Джеймс Андерсон / James Anderson, Уильям Уиндом / William Windom, Крэхан Дентон / Crahan Denton, Ричард Хейл / Richard Hale...

Описание: Фильм о юристе из Алабамы, воспитывающем без матери своих двоих детей. Помимо темы расовых предрассудков на Юге, это рассказ о том, как двое детей из мира фантазий делают первые шаги в совершенно иной мир подростков, где уже формируются такие понятия, как благородство, сострадание, справедливость и неравенство. В обстановке экономической депрессии, преисполненной фанатизма и ненависти, мудрый, мягкий, с тихой речью и великолепными манерами алабамский юрист должен защищать в суде негра, ложно обвиненного в изнасиловании.

Качество: DVDRip
Формат: MP4
Видео кодек: H.264
Аудио кодек: AAC
Видео: MPEG4 Video (H264) 480x272 25.000fps 650 kbps
Аудио: AAC 48000Hz stereo 130 kbps
General
Complete name : УБИТЬ ПЕРЕСМЕШНИКА.mp4
Format : MPEG-4
Format profile : Base Media
Codec ID : isom
File size : 693 MiB
Duration : 2h 3mn
Overall bit rate : 782 Kbps
Encoded date : UTC 2011-07-06 09:18:56
Tagged date : UTC 2011-07-06 09:18:56

Video
ID : 1
Format : AVC
Format/Info : Advanced Video Codec
Format profile : <a href="mailto:Main@L2.1" class="postLink">Main@L2.1</a>
Format settings, CABAC : Yes
Format settings, ReFrames : 1 frame
Codec ID : avc1
Codec ID/Info : Advanced Video Coding
Duration : 2h 3mn
Bit rate mode : Variable
Bit rate : 650 Kbps
Maximum bit rate : 2 296 Kbps
Width : 480 pixels
Height : 272 pixels
Display aspect ratio : 16:9
Frame rate mode : Constant
Frame rate : 25.000 fps
Color space : YUV
Chroma subsampling : 4:2:0
Bit depth : 8 bits
Scan type : Progressive
Bits/(Pixel*Frame) : 0.199
Stream size : 576 MiB (83%)
Writing library : x264 core 65 r999kMod cc51047
Encoding settings : cabac=1 / ref=1 / deblock=1:0:0 / analyse=0x1:0x111 / me=hex / subme=6 / psy_rd=1.0:0.0 / mixed_ref=0 / me_range=16 / chroma_me=1 / trellis=0 / 8x8dct=0 / cqm=0 / deadzone=21,11 / chroma_qp_offset=-2 / threads=2 / thread_queue=2 / nr=0 / decimate=1 / mbaff=0 / bframes=0 / keyint=250 / keyint_min=25 / scenecut=40(pre) / rc=2pass / bitrate=650 / ratetol=1.0 / qcomp=0.60 / qpmin=10 / qpmax=51 / qpstep=4 / cplxblur=20.0 / qblur=0.5 / ip_ratio=1.40 / aq=1:1.00
Encoded date : UTC 2011-07-06 09:18:56
Tagged date : UTC 2011-07-06 09:20:53

Audio
ID : 2
Format : AAC
Format/Info : Advanced Audio Codec
Format version : Version 4
Format profile : LC
Format settings, SBR : No
Codec ID : 40
Duration : 2h 3mn
Bit rate mode : Variable
Bit rate : 130 Kbps
Maximum bit rate : 173 Kbps
Channel(s) : 2 channels
Channel positions : Front: L R
Sampling rate : 48.0 KHz
Stream size : 115 MiB (17%)
Encoded date : UTC 2011-07-06 09:20:48
Tagged date : UTC 2011-07-06 09:20:53



Трекер:  [ 01-Июн-2012 13:51 ]

  

Скачать .torrent

Размер .torrent файла 14 KB


Размер: 693 MB
Хэш (hash) релиза: 54964c3edfe7fd8616bae86157c933eaa414242e
Подписка на обновления:

Торренты, похожие на Убить пересмешника To kill a mockingbird скачать торрент

Форум Название Автор Размер S L Добавлен
Зарубежные фильмы до 2016 ·· Убить пересмешника / To Kill a Mockingbird (Роберт Маллиган / Robert Mulligan) [1962, драма, криминал, детектив, BDRip] Dub + Original Galfimbul 23394897922.18 GB 0 0 1364799124

09:52

1-Апр-13

Зарубежные фильмы до 2016 ·· Убить пересмешника / To Kill a Mockingbird (Роберт Маллиган / Robert Mulligan) [1962 г., драма, криминал, детектив, BDRip-AVC] Dub + MVO + Original + Commentary + Sub (Rus, Eng) Galfimbul 31768970342.96 GB 0 0 1364794638

08:37

1-Апр-13

Зарубежные фильмы до 2016 ·· Убить пересмешника / To Kill a Mockingbird (Роберт Маллиган / Robert Mulligan) [1962, США, драма, криминал, детектив, BDRip] Dub + MVO + 2хSub (Rus + Eng) + Original Eng Galfimbul 30930290472.88 GB 0 0 1349714760

19:46

8-Окт-12

Зарубежные фильмы до 2016 ·· Убить пересмешника / To Kill a Mockingbird (Роберт Маллиган / Robert Mulligan) [1962, драма, криминал, детектив, Blu-ray Disc 1080p] _N_ 4776847064744.49 GB 0 0 1331320140

22:09

9-Мар-12

Зарубежные фильмы до 2016 ·· Убить пересмешника / To Kill a Mockingbird (Роберт Маллиган / Robert Mulligan) [1962, США, драма, криминал, детектив, 2хDVD9 (Custom)] Dub MVO Subs Rus... + Original Eng uzi2009 1611269175715.01 GB 0 0 1331229840

21:04

8-Мар-12

Зарубежные фильмы до 2016 ·· Убить пересмешника / To Kill a Mockingbird (Роберт Маллиган / Robert Mulligan) [1962, Драма, Криминал, Детектив, BDRip 720p] Dub + MVO + Original + Sub (Rus, Eng) Captain Claw 73707426766.86 GB 0 0 1329319612

18:26

15-Фев-12

Еще никто не оставлял запись к записи скачать торрент Убить пересмешника To kill a mockingbird . Будь первым!

!Обратная связь