Скачать через торрент Зорро Zorro Фильм бесплатно в хорошем качестве torrent

Скачивайте на UnionPeer.org фильмы через торрент без регистрации. Новинки кино в хорошем качестве через торрент. На UnionPeer.org можно скачать через торрент фильмы 2014 и 2015 годов. Самые новые фильмы.

Скачать торрент Зорро Zorro бесплатно через .torrent фильм мультфильм сериал

Если у вас наблюдаются проблемы со скриншотами, переходом по ссылками, скачиванием торрентов - проблемы в блокировщике рекламы AdBlock. #хорошегоДня!


Статистика раздачи
Размер:  626 MB   |    Зарегистрирован:  5 лет 4 месяца   |    .torrent скачан:  63 раза   |   
Раздают:  1  
   
Загрузка...
 
Автор Сообщение

Galfimbul

avatar Galfimbul


Зорро / Zorro
Оригинальное название: Zorro
Год выпуска: 1975
Страна: Италия, Франция
Жанр: Приключение
Продолжительность: 01:58:47
Перевод: Профессиональный (полное дублирование)
Режиссер: Дуччо Тессари / Duccio Tessari

В ролях: Ален Делон, Оттавия Пикколо, Энцо Черузико, Мусташ, Джакомо Росси-Стюарт, Джампьеро Альбертини, Марино Мазе, Райка Юрий, Адриана Асти, Стенли Бейкер

Описание: Действие фильма происходит в одной из южноамериканских провинций. На глазах у испанца Диэго трое наёмных убийц убивают его давнего друга Мигеля, который должен был стать губернатором города Нуэва Арагона. Диэго обещает истекающему кровью Мигелю, что он отомстит за его смерть. Но умирающий христианин Мигель просит Диэго (лучшего фехтовальщика Старого Света) дать клятву, что он не будет мстить за него путём насилия.
Заручившись поддержкой губернаторского перстня и вверительной грамоты герой приезжает в Нуэва Арагону и изображая бестолкового и флегматичного губернатора обнаруживает, что власть в этой испанской колонии узурпирована жестоким полковником Уэртой, по тайному приказу которого и был убит его лучший друг. Чтобы обуздать тиранию Уэрты и его армии герой начинает противостоять творящемуся произволу полковника с помощью двойной игры.
Облачившись в чёрный плащ, шляпу и маску он превращается в неуловимого Зорро, устраивающего погрязшим в роскоши, нечестным богатеям и солдатам Уэрты «партизанские» вылазки на площадях, базарах и каторгах Нуэва Арагоны.
Качество: DVDRip
Формат: MP4
Видео кодек: H.264
Аудио кодек: AAC
Видео: MPEG4 Video (H264) 368x272 29.970fps 604 kbps
Аудио: AAC 48000Hz stereo 129 kbps
General
Complete name : ЗОРРО.mp4
Format : MPEG-4
Format profile : Base Media
Codec ID : isom
File size : 626 MiB
Duration : 1h 58mn
Overall bit rate : 736 Kbps
Encoded date : UTC 2010-12-15 13:09:27
Tagged date : UTC 2010-12-15 13:09:27

Video
ID : 1
Format : AVC
Format/Info : Advanced Video Codec
Format profile : <a href="mailto:Main@L3.0" class="postLink">Main@L3.0</a>
Format settings, CABAC : Yes
Format settings, ReFrames : 2 frames
Codec ID : avc1
Codec ID/Info : Advanced Video Coding
Duration : 1h 58mn
Bit rate mode : Variable
Bit rate : 604 Kbps
Nominal bit rate : 608 Kbps
Maximum bit rate : 1 611 Kbps
Width : 368 pixels
Height : 272 pixels
Display aspect ratio : 4:3
Frame rate mode : Constant
Frame rate : 29.970 fps
Resolution : 8 bits
Colorimetry : 4:2:0
Scan type : Progressive
Bits/(Pixel*Frame) : 0.201
Stream size : 513 MiB (82%)
Writing library : x264 core 65 r999kMod cc51047
Encoding settings : cabac=1 / ref=2 / deblock=1:0:0 / analyse=0x1:0x131 / me=umh / subme=6 / psy_rd=1.0:0.0 / mixed_ref=1 / me_range=16 / chroma_me=1 / trellis=1 / 8x8dct=0 / cqm=0 / deadzone=21,11 / chroma_qp_offset=-2 / threads=2 / thread_queue=2 / nr=0 / decimate=1 / mbaff=0 / bframes=3 / b_pyramid=0 / b_adapt=1 / b_bias=0 / direct=1 / wpredb=1 / keyint=250 / keyint_min=25 / scenecut=40(pre) / rc=abr / bitrate=608 / ratetol=1.0 / qcomp=0.60 / qpmin=10 / qpmax=51 / qpstep=4 / ip_ratio=1.40 / pb_ratio=1.30 / aq=1:1.00
Encoded date : UTC 2010-12-15 13:09:27
Tagged date : UTC 2010-12-15 13:11:29

Audio
ID : 2
Format : AAC
Format/Info : Advanced Audio Codec
Format version : Version 4
Format profile : LC
Format settings, SBR : No
Codec ID : 40
Duration : 1h 58mn
Bit rate mode : Variable
Bit rate : 129 Kbps
Maximum bit rate : 178 Kbps
Channel(s) : 2 channels
Channel positions : L R
Sampling rate : 48.0 KHz
Stream size : 109 MiB (17%)
Encoded date : UTC 2010-12-15 13:11:21
Tagged date : UTC 2010-12-15 13:11:29



Трекер:  [ 01-Июн-2012 13:49 ]

  

Скачать .torrent

Размер .torrent файла 12 KB


Размер: 626 MB
Хэш (hash) релиза: 36eb788e21c7f4bfb84b6b6974dfbbadb17270d0
Подписка на обновления:

Торренты, похожие на Зорро Zorro скачать торрент

Форум Название Автор Размер S L Добавлен
Зарубежные сериалы ·· Сражающийся легион Зорро / Zorros Fighting Legion / Сезон: 1 / Серии: 1-12 из 12 (Уильям Уитни / William Witney, Джон Инглиш / John English) [1939, приключения, вестерн, DVDRip] VO (Kolobroad) Galfimbul 35992719363.35 GB 0 0 1424025246

21:34

15-Фев-15

Зарубежные сериалы ·· Зорро / Zorro / Сезон: 1 / Серии: 1-39 из 39 (Норман Фостер и др.) [1957, приключения, семейный, комедия, DVDRip] DUB + Rus Sub + Original L 1720547439316.02 GB 0 0 1360045500

09:25

5-Фев-13

Мультфильмы до 2016 ·· Зорро: Возвращение в будущее / Zorro: Return to the future (Стюарт Эванс / Styart Evens) [2006, Мультфильм, приключения, DVDRip] MVO Galfimbul 733515776700 MB 0 0 1502906829

21:07

16-Авг-17

Зарубежные фильмы до 2016 ·· Легенда Зорро / The Legend of Zorro (Мартин Кэмпбелл) [2005, приключения, BDRemux 1080p] DUB Galfimbul 3217901839829.97 GB 0 0 1495217502

21:11

19-Май-17

Зарубежные фильмы до 2016 ·· Легенда Зорро / The Legend of Zorro (Мартин Кэмпбелл / Martin Campbell) [2005, США, боевик, приключения, вестерн, HDRip] AVO (Гаврилов) Galfimbul 23338967042.17 GB 0 0 1468992372

08:26

20-Июл-16

Мультфильмы до 2016 ·· Маска Зорро / The Amazing Zorro (Скотт Хеминг / Scott Heming) [2002, мультфильм, боевик, приключения, семейный, DVD5] MVO + rus sub Galfimbul 45224099844.21 GB 0 0 1454785436

22:03

6-Фев-16

Зарубежные фильмы до 2016 ·· Легенда Зорро / The Legend of Zorro (Мартин Кэмпбелл / Martin Campbell) [2005, США, боевик, приключения, вестерн, BDRip] Dub Bot 15631052801.46 GB 0 0 1393141396

10:43

23-Фев-14

Зарубежные фильмы до 2016 ·· Маска Зорро / The Mask of Zorro (Мартин Кэмпбелл/Martin Campbell) [1998 г., Боевик, исторический, приключенческий, DVDRip] Galfimbul 14674432001.37 GB 0 0 1365331279

13:41

7-Апр-13

Зарубежные фильмы до 2016 ·· Маска Зорро / The Mask of Zorro (Мартин Кэмпбелл / Martin Campbell) [1998 г., Боевик, Приключения, Мелодрама, Вестерн, BDRip] Dub + Avo (Живов) + Original + Subs (Rus, Rus Forced + Eng + Eng Forced) Galfimbul 32669496323.04 GB 0 0 1365329512

13:11

7-Апр-13

Зарубежные фильмы до 2016 ·· Маска Зорро / The Mask of Zorro (Мартин Кэмпбелл / Martin Campbell) [1998 г., Боевик, Вестерн, Мелодрама, Приключения, HDRip] MVO Galfimbul 15646679041.46 GB 0 0 1365328891

13:01

7-Апр-13

Зарубежные фильмы до 2016 ·· Маска Зорро / The Mask of Zorro (Мартин Кэмпбелл / Martin Campbell) [1998 г., Боевик, мелодрама, приключения, BDRip] Dub + Original + Subs (Rus, Eng) Galfimbul 31184836682.9 GB 0 0 1365323182

11:26

7-Апр-13

Зарубежные фильмы до 2016 ·· Маска Зорро / The Mask of Zorro (Мартин Кэмпбелл) [1998 г., Боевик, Вестерн, Комедия, Мелодрама, Приключения, DVDRip] Galfimbul 811345083774 MB 0 0 1365322145

11:09

7-Апр-13

Зарубежные фильмы до 2016 ·· Знак Зорро / The Mark Of Zorro (Рубен Мамулян / Rouben Mamoulian) [1940 г., Приключения, DVDRip] [Colorized] Galfimbul 14823257081.38 GB 0 0 1364809797

12:49

1-Апр-13

Зарубежные фильмы до 2016 ·· Дон Ку сын Зорро / Don Q Son of Zorro ( Дональд Крисп / Donald Crisp) [1925,мелодрама, приключения, DVDRip ] VO + Sub (en) L 22400258062.09 GB 0 0 1364809091

12:38

1-Апр-13

Зарубежные фильмы до 2016 ·· Знак Зорро / The Mark of Zorro (Фред Нибло / Fred Niblo) [1920 г., приключения, немое кино, DVDRip] Sub (Rus) Supportive 838380783800 MB 0 0 1364809075

12:37

1-Апр-13

Зарубежные фильмы до 2016 ·· Знак Зорро / Il segno di Zorro (Марио Кайано / Mario Caiano) [1963 г., приключения, вестерн, TVRip] LinGr 14684119041.37 GB 0 0 1364806664

11:57

1-Апр-13

Зарубежные фильмы до 2016 ·· Знак Зорро / The Mark of Zorro (Фред Нибло / Fred Niblo) [1920 г., приключения, VHSRip] Galfimbul 25048186882.33 GB 0 0 1364800866

10:21

1-Апр-13

Зарубежные фильмы до 2016 ·· Большое приключение Зорро / La Gran Aventura Del Zorro (Рауль де Анда / Raul de Anda) [1976 г., Приключения, DVDRip] Galfimbul 747319040713 MB 0 0 1364799542

09:59

1-Апр-13

Зарубежные фильмы до 2016 ·· Знак Зорро / The Mark Of Zorro (Рубен Мамулян / Rouben Mamoulian) [1940 г., Приключения] MVO Galfimbul 13396229121.25 GB 0 0 1364797417

09:23

1-Апр-13

Еще никто не оставлял запись к записи скачать торрент Зорро Zorro . Будь первым!

!Обратная связь