Скачать через торрент [FILM] Бедная Саша Фильм бесплатно в хорошем качестве torrent

Скачивайте на UnionPeer.org фильмы через торрент без регистрации. Новинки кино в хорошем качестве через торрент. На UnionPeer.org можно скачать через торрент фильмы 2014 и 2015 годов. Самые новые фильмы.

Скачать торрент [FILM] Бедная Саша бесплатно через .torrent фильм мультфильм сериал

Если у вас наблюдаются проблемы со скриншотами, переходом по ссылками, скачиванием торрентов - проблемы в блокировщике рекламы AdBlock. #хорошегоДня!


Статистика раздачи
Размер:  492 MB   |    Зарегистрирован:  5 лет 5 месяцев   |    .torrent скачан:  44 раза   |   
Раздают:  1  
   
Загрузка...
 
Автор Сообщение

Galfimbul

avatar Galfimbul


Бедная Саша
Оригинальное название: Бедная Саша
Год выпуска: 1997 г.
Страна: Россия
Жанр: комедия, приключения
Продолжительность: 01:31:43
Перевод: Не требуется
Режиссер:

Тигран Кеосаян
В ролях:

Юлия Чернова
Александр Збруев
Вера Глаголева
Ольга Волкова
Борис Сичкин
Валерий Гаркалин
Армен Джигарханян
Спартак Мишулин
Нина Русланова
Анатолий Журавлев
Описание: «Бедная Саша» — это в первую очередь детектив! «Новая русская» девочка хочет ограбить банк своей «новой русской» мамы, для того, чтобы она перестала быть банкиршей, а стала просто любимой мамочкой.
«Бедная Саша» — это, конечно же, новогодняя сказка о том, как сильно люди нуждаются в любви: девочке недостает родительского тепла, ее мама неуютно чувствует себя без любимого человека.
А главный герой, талантливый и благородный, чтобы вновь почувствовать себя мужчиной, должен защитить нежных и трогательных женщин. Тем более, что они — маленькая и взрослая — так похожи на несбыточную мечту.
Качество видео: SATRip
Формат: MP4
Видео кодек: H.264
Аудио кодек: AAC
Видео: MPEG4 Video (H264) 368x272 25.00fps 613 Kbps
Аудио: AAC 48000Hz stereo 129
Общее
Полное имя : D:\Бедная Саша_1.46.mp4
Формат : MPEG-4
Профиль формата : Base Media
Идентификатор кодека : isom
Размер файла : 492 Мбайт
Продолжительность : 1 ч. 31 м.
Режим общего битрейта : Переменный
Общий поток : 750 Кбит/сек
Дата кодирования : UTC 2012-02-10 20:45:45
Дата пометки : UTC 2012-02-10 20:45:45

Видео
Идентификатор : 1
Формат : AVC
Формат/Информация : Advanced Video Codec
Профиль формата : <a href="mailto:Main@L3.0" class="postLink">Main@L3.0</a>
Параметр CABAC формата : Да
Параметр ReFrames формата : 2 кадра
Идентификатор кодека : avc1
Идентификатор кодека/Информация : Advanced Video Coding
Продолжительность : 1 ч. 31 м.
Битрейт : 613 Кбит/сек
Максимальный битрейт : 2162 Кбит/сек
Ширина : 368 пикселей
Высота : 272 пикселя
Соотношение сторон : 4:3
Режим частоты кадров : Постоянный
Частота кадров : 25,000 кадров/сек
Цветовое пространство : YUV
Субдискретизация насыщенности : 4:2:0
Битовая глубина : 8 бит
Тип развёртки : Прогрессивная
Бит/(Пиксели*Кадры) : 0.245
Размер потока : 405 Мбайт (82%)
Библиотека кодирования : x264 core 65 r999kMod cc51047
Настройки программы : cabac=1 / ref=2 / deblock=1:0:0 / analyse=0x1:0x131 / me=umh / subme=6 / psy_rd=1.0:0.0 / mixed_ref=1 / me_range=16 / chroma_me=1 / trellis=1 / 8x8dct=0 / cqm=0 / deadzone=21,11 / chroma_qp_offset=-2 / threads=2 / thread_queue=2 / nr=0 / decimate=1 / mbaff=0 / bframes=3 / b_pyramid=0 / b_adapt=1 / b_bias=0 / direct=1 / wpredb=1 / keyint=250 / keyint_min=25 / scenecut=40(pre) / rc=abr / bitrate=613 / ratetol=1.0 / qcomp=0.60 / qpmin=10 / qpmax=51 / qpstep=4 / ip_ratio=1.40 / pb_ratio=1.30 / aq=1:1.00
Дата кодирования : UTC 2012-02-10 20:45:45
Дата пометки : UTC 2012-02-10 20:51:48

Аудио
Идентификатор : 2
Формат : AAC
Формат/Информация : Advanced Audio Codec
Профиль формата : LC
Идентификатор кодека : 40
Продолжительность : 1 ч. 31 м.
Вид битрейта : Переменный
Битрейт : 129 Кбит/сек
Максимальный битрейт : 152 Кбит/сек
Каналы : 2 канала
Расположение каналов : Front: L R
Частота : 48,0 КГц
Метод сжатия : С потерями
Размер потока : 84,5 Мбайт (17%)
Дата кодирования : UTC 2012-02-10 20:51:25
Дата пометки : UTC 2012-02-10 20:51:48


Трекер:  [ 31-Май-2012 13:09 ]

  

Скачать .torrent

Размер .torrent файла 19 KB


Размер: 492 MB
Хэш (hash) релиза: 0a14ff5fee455e7eab499ce167780074e4b558a4
Подписка на обновления:

Еще никто не оставлял запись к записи скачать торрент [FILM] Бедная Саша . Будь первым!

!Обратная связь