Скачать через торрент Czeremszyna Todar - што на сэрцы...co na sercu... - 2011 бесплатно русская версия torrent активатор

Если у вас наблюдаются проблемы со скриншотами, переходом по ссылками, скачиванием торрентов - проблемы в блокировщике рекламы AdBlock. #хорошегоДня!


Статистика раздачи
Размер:  489 MB   |    Зарегистрирован:  5 лет 5 месяцев   |    .torrent скачан:  32 раза   |   
Раздают:  1  
   
Загрузка...
 
Автор Сообщение

L


Czeremszyna Todar - што на сэрцы.../co na sercu...

Год: 2011
Страна: Беларусь
Страна-производитель диска: Польша
Жанр: Folk-Rock
Тип издания: оригинал
Издатель (лейбл): Czeremszyna
Наличие сканов в содержимом раздачи: да
Продолжительность: 00:50:39
Тексты: отсутствуют
Кодек: ALAC
Программа-риповщик : foobar2000 + iTunes (lossless)
Битрейт: lossless
Треклист:
01. А ты мыла / A ty myla
02. Юр'я / Jurja
03. Палын / Palyn
04. Куралес / Kurales
05. Шчодры вечор / Szczodry wieczor
06. Бабка / Babka
07. Зоркі / Zorki
08. В'яргінечка / Wiarhinieczka
09. Зэлоны дубочок / Zelony duboczok
10. Ямін - яміна / Jamin - jamina
11. Усе лугі / Usie luhi
12. Волы / Woly
  
Exact Audio Copy V0.99 prebeta 5 from 4. May 2009

Отчёт EAC об извлечении, выполненном 17. марта 2012, 10:37

Czeremszyna Todar / што на сэрцы...

Дисковод: _NEC DVD_RW ND-3550A Adapter: 0 ID: 0

Режим чтения : ДостоверностьИспользование точного потока : ДаОтключение кэша аудио : ДаИспользование указателей C2 : Нет

Коррекция смещения при чтении : 48Способность читать области Lead-in и Lead-out : НетЗаполнение пропущенных сэмплов тишиной : ДаУдаление блоков с тишиной в начале и конце : НетПри вычислениях CRC использовались нулевые сэмплы : ДаИнтерфейс : Установленный внешний ASPI-интерфейс

Выходной формат : Внутренние WAV-операцииФормат сэмплов : 44.100 Гц; 16 бит; стерео

TOC извлечённого CD

Трек | Старт | Длительность | Начальный сектор | Конечный сектор --------------------------------------------------------------------- 1 | 0:00.00 | 3:36.02 | 0 | 16201 2 | 3:36.02 | 3:00.61 | 16202 | 29762 3 | 6:36.63 | 5:05.66 | 29763 | 52703 4 | 11:42.54 | 4:22.33 | 52704 | 72386 5 | 16:05.12 | 4:41.10 | 72387 | 93471 6 | 20:46.22 | 3:55.20 | 93472 | 111116 7 | 24:41.42 | 3:39.53 | 111117 | 127594 8 | 28:21.20 | 3:24.66 | 127595 | 142960 9 | 31:46.11 | 4:06.30 | 142961 | 161440 10 | 35:52.41 | 6:06.62 | 161441 | 188952 11 | 41:59.28 | 4:17.72 | 188953 | 208299 12 | 46:17.25 | 4:22.25 | 208300 | 227974

Характеристики диапазона извлечения и сообщения об ошибках

Выбранный диапазон

Имя файла F:\Music lossless\Czeremszyna Todar - што на сэрцы....wav

Пиковый уровень 100.0 % Качество диапазона 100.0 % CRC теста 4D1BA4D6 CRC копии 4D1BA4D6 Копирование... OK

Ошибок не произошло

AccurateRip: сводка

Трек 1 нет в базе данныхТрек 2 нет в базе данныхТрек 3 нет в базе данныхТрек 4 нет в базе данныхТрек 5 нет в базе данныхТрек 6 нет в базе данныхТрек 7 нет в базе данныхТрек 8 нет в базе данныхТрек 9 нет в базе данныхТрек 10 нет в базе данныхТрек 11 нет в базе данныхТрек 12 нет в базе данных

Ни одного трека нет в базе AccurateRip

Конец отчёта
  
Started at: воскресенье, 13. 05. 2012. - 8:17.281 file found

1 -===- F:\Music lossless\Czeremszyna Todar - што на сэрцы lossless\Czeremszyna Todar - што на сэрцы....flac Extracted successfully Conclusion: this track is CDDA with probability 100% Tempfile successfully deleted.

Finished at: воскресенье, 13. 05. 2012. - 8:21.05 (operation time: 0:03.37)



Трекер:  [ 13-Май-2012 13:20 ]

  

Скачать .torrent

Размер .torrent файла 21 KB


Размер: 489 MB
Хэш (hash) релиза: b85c254d38da40d9099dce93af4801375f1aec59

Еще никто не оставлял запись к записи скачать торрент Czeremszyna Todar - што на сэрцы...co na sercu... - 2011 . Будь первым!

!Обратная связь