Скачать через торрент Rocket Juice & the Moon - Rocket Juice & the Moon - 2012 ALAC, lossless бесплатно русская версия torrent активатор

Если у вас наблюдаются проблемы со скриншотами, переходом по ссылками, скачиванием торрентов - проблемы в блокировщике рекламы AdBlock. #хорошегоДня!


Статистика раздачи
Размер:  342 MB   |    Зарегистрирован:  5 лет 5 месяцев   |    .torrent скачан:  33 раза   |   
Раздают:  1  
   
Загрузка...
 
Автор Сообщение

L


Rocket Juice & the Moon - Rocket Juice & the Moon

Год: 2012
Жанр: Afrobeat, Funk
Издатель (лейбл): Honest Jon's
Продолжительность: 52:32
Тексты: отсутствуют
Кодек: ALAC
Программа-риповщик : foobar2000 + iTunes (lossless)
Битрейт: lossless
Треклист:
1. 1-2-3-4-5-6
2. Hey, Shooter
3. Lolo
4. Night Watch
5. Forward Sweep
6. Follow-Fashion
7. Chop Up
8. Poison
9. Extinguished
10. Rotary Connection
11. Check Out
12. There
13. Worries
14. Benko
15. The Unfadable
16. Dam(n)
17. Fatherless
18. Leave-Taking
  
X Lossless Decoder version 20120407 (140.0)

XLD extraction logfile from 2012-04-18 18:23:09 -0700

Rocket Juice & The Moon / Rocket Juice & The Moon

Used drive : SONY DVD RW DW-Q28A (revision KAS7)

Ripper mode : XLD Secure RipperDisable audio cache : OK for the drive with a cache less than 1375KiBMake use of C2 pointers : NORead offset correction : 12Max retry count : 100Gap status : Analyzed, Appended

TOC of the extracted CD Track | Start | Length | Start sector | End sector --------------------------------------------------------- 1 | 00:00:00 | 03:04:56 | 0 | 13855 2 | 03:04:56 | 04:10:59 | 13856 | 32664 3 | 07:15:40 | 05:03:10 | 32665 | 55399 4 | 12:18:50 | 02:12:54 | 55400 | 65353 5 | 14:31:29 | 01:49:47 | 65354 | 73575 6 | 16:21:01 | 03:57:54 | 73576 | 91404 7 | 20:18:55 | 02:37:09 | 91405 | 103188 8 | 22:55:64 | 03:24:18 | 103189 | 118506 9 | 26:20:07 | 02:39:69 | 118507 | 130500 10 | 29:00:01 | 02:02:56 | 130501 | 139706 11 | 31:02:57 | 02:24:49 | 139707 | 150555 12 | 33:27:31 | 04:51:58 | 150556 | 172438 13 | 38:19:14 | 01:16:07 | 172439 | 178145 14 | 39:35:21 | 02:34:59 | 178146 | 189754 15 | 42:10:05 | 02:57:74 | 189755 | 203103 16 | 45:08:04 | 02:26:18 | 203104 | 214071 17 | 47:34:22 | 03:00:04 | 214072 | 227575 18 | 50:34:26 | 02:07:13 | 227576 | 237113

AccurateRip Summary Track 01 : NG Track 02 : OK (confidence 1) Track 03 : OK (confidence 1) Track 04 : OK (confidence 1) Track 05 : OK (confidence 1) Track 06 : OK (confidence 1) Track 07 : OK (confidence 1) Track 08 : OK (confidence 1) Track 09 : OK (confidence 1) Track 10 : OK (confidence 1) Track 11 : OK (confidence 1) Track 12 : OK (confidence 1) Track 13 : OK (confidence 1) Track 14 : OK (confidence 1) Track 15 : OK (confidence 1) Track 16 : OK (confidence 1) Track 17 : OK (confidence 1) Track 18 : OK (confidence 1) ->17 track(s) accurately ripped, 1 track(s) not, 0 track(s) not found

All Tracks Album gain : -7.07 dB Peak : 0.980743 Statistics Read error : 0 Jitter error (maybe fixed) : 0 Retry sector count : 0 Damaged sector count : 0

Track 01 Filename : /Volumes/TorrentData/What/Rocket Juice & The Moon - Rocket Juice & The Moon (2012) [FLAC]/01 Rocket Juice & The Moon - 1-2-3-4-5-6.flac Pre-gap length : 00:02:00

Track gain : -4.28 dB Peak : 0.980682 CRC32 hash (test run) : C8185F88 CRC32 hash : C8185F88 CRC32 hash (skip zero) : D3BF2AF6 AccurateRip signature : 554D235C ->Rip may not be accurate. Statistics Read error : 0 Jitter error (maybe fixed) : 0 Retry sector count : 0 Damaged sector count : 0

Track 02 Filename : /Volumes/TorrentData/What/Rocket Juice & The Moon - Rocket Juice & The Moon (2012) [FLAC]/02 Rocket Juice & The Moon Feat. Erykah Badu, Thundercat & Hypnotic Brass Ensemble - Hey, Shooter.flac

Track gain : -6.22 dB Peak : 0.874054 CRC32 hash (test run) : BD6EA293 CRC32 hash : BD6EA293 CRC32 hash (skip zero) : 5C659A60 AccurateRip signature : 83D89056 ->Accurately ripped! (confidence 1) Statistics Read error : 0 Jitter error (maybe fixed) : 0 Retry sector count : 0 Damaged sector count : 0

Track 03 Filename : /Volumes/TorrentData/What/Rocket Juice & The Moon - Rocket Juice & The Moon (2012) [FLAC]/03 Rocket Juice & The Moon Feat. Fatoumata Diawara, M.anifest & Hypnotic Brass Ensemble - Lolo.flac

Track gain : -7.18 dB Peak : 0.980713 CRC32 hash (test run) : F9BC5796 CRC32 hash : F9BC5796 CRC32 hash (skip zero) : D1950FA2 AccurateRip signature : D338783E ->Accurately ripped! (confidence 1) Statistics Read error : 0 Jitter error (maybe fixed) : 0 Retry sector count : 0 Damaged sector count : 0

Track 04 Filename : /Volumes/TorrentData/What/Rocket Juice & The Moon - Rocket Juice & The Moon (2012) [FLAC]/04 Rocket Juice & The Moon - Night Watch.flac

Track gain : -5.57 dB Peak : 0.980682 CRC32 hash (test run) : 09DE4D58 CRC32 hash : 09DE4D58 CRC32 hash (skip zero) : 1673AB55 AccurateRip signature : FEEE06EC ->Accurately ripped! (confidence 1) Statistics Read error : 0 Jitter error (maybe fixed) : 0 Retry sector count : 0 Damaged sector count : 0

Track 05 Filename : /Volumes/TorrentData/What/Rocket Juice & The Moon - Rocket Juice & The Moon (2012) [FLAC]/05 Rocket Juice & The Moon - Forward Sweep.flac

Track gain : -5.01 dB Peak : 0.874084 CRC32 hash (test run) : E148F9F7 CRC32 hash : E148F9F7 CRC32 hash (skip zero) : 105365A8 AccurateRip signature : 8561FB4A ->Accurately ripped! (confidence 1) Statistics Read error : 0 Jitter error (maybe fixed) : 0 Retry sector count : 0 Damaged sector count : 0

Track 06 Filename : /Volumes/TorrentData/What/Rocket Juice & The Moon - Rocket Juice & The Moon (2012) [FLAC]/06 Rocket Juice & The Moon Feat. Fatoumata Diawara & M.anifest - Follow-Fashion.flac

Track gain : -7.87 dB Peak : 0.980713 CRC32 hash (test run) : ED5F49C9 CRC32 hash : ED5F49C9 CRC32 hash (skip zero) : C99D72AB AccurateRip signature : 28420BCD ->Accurately ripped! (confidence 1) Statistics Read error : 0 Jitter error (maybe fixed) : 0 Retry sector count : 0 Damaged sector count : 0

Track 07 Filename : /Volumes/TorrentData/What/Rocket Juice & The Moon - Rocket Juice & The Moon (2012) [FLAC]/07 Rocket Juice & The Moon Feat. M.anifest & M3nsa - Chop Up.flac

Track gain : -8.37 dB Peak : 0.980713 CRC32 hash (test run) : C7A6DA95 CRC32 hash : C7A6DA95 CRC32 hash (skip zero) : 982348A2 AccurateRip signature : 684E8A32 ->Accurately ripped! (confidence 1) Statistics Read error : 0 Jitter error (maybe fixed) : 0 Retry sector count : 0 Damaged sector count : 0

Track 08 Filename : /Volumes/TorrentData/What/Rocket Juice & The Moon - Rocket Juice & The Moon (2012) [FLAC]/08 Rocket Juice & The Moon Feat. Damon Albarn - Poison.flac

Track gain : -5.88 dB Peak : 0.980743 CRC32 hash (test run) : 97F47FAE CRC32 hash : 97F47FAE CRC32 hash (skip zero) : A83F4A21 AccurateRip signature : 8BAE5451 ->Accurately ripped! (confidence 1) Statistics Read error : 0 Jitter error (maybe fixed) : 0 Retry sector count : 0 Damaged sector count : 0

Track 09 Filename : /Volumes/TorrentData/What/Rocket Juice & The Moon - Rocket Juice & The Moon (2012) [FLAC]/09 Rocket Juice & The Moon Feat. Cheick Tidiane Seck - Extinguished.flac

Track gain : -6.81 dB Peak : 0.980713 CRC32 hash (test run) : 27EFBB71 CRC32 hash : 27EFBB71 CRC32 hash (skip zero) : 6DA89453 AccurateRip signature : B0ABD60D ->Accurately ripped! (confidence 1) Statistics Read error : 0 Jitter error (maybe fixed) : 0 Retry sector count : 0 Damaged sector count : 0

Track 10 Filename : /Volumes/TorrentData/What/Rocket Juice & The Moon - Rocket Juice & The Moon (2012) [FLAC]/10 Rocket Juice & The Moon - Rotary Connection.flac

Track gain : -7.56 dB Peak : 0.980713 CRC32 hash (test run) : F7FA714C CRC32 hash : F7FA714C CRC32 hash (skip zero) : D70E66FB AccurateRip signature : 5DCBA47D ->Accurately ripped! (confidence 1) Statistics Read error : 0 Jitter error (maybe fixed) : 0 Retry sector count : 0 Damaged sector count : 0

Track 11 Filename : /Volumes/TorrentData/What/Rocket Juice & The Moon - Rocket Juice & The Moon (2012) [FLAC]/11 Rocket Juice & The Moon - Check Out.flac

Track gain : -5.02 dB Peak : 0.980713 CRC32 hash (test run) : E17571AC CRC32 hash : E17571AC CRC32 hash (skip zero) : A923F7AC AccurateRip signature : 8CB3115A ->Accurately ripped! (confidence 1) Statistics Read error : 0 Jitter error (maybe fixed) : 0 Retry sector count : 0 Damaged sector count : 0

Track 12 Filename : /Volumes/TorrentData/What/Rocket Juice & The Moon - Rocket Juice & The Moon (2012) [FLAC]/12 Rocket Juice & The Moon Feat. Cheick Tidiane Seck - There.flac

Track gain : -6.50 dB Peak : 0.980743 CRC32 hash (test run) : 042E2A48 CRC32 hash : 042E2A48 CRC32 hash (skip zero) : 08314718 AccurateRip signature : 313EBEAA ->Accurately ripped! (confidence 1) Statistics Read error : 0 Jitter error (maybe fixed) : 0 Retry sector count : 0 Damaged sector count : 0

Track 13 Filename : /Volumes/TorrentData/What/Rocket Juice & The Moon - Rocket Juice & The Moon (2012) [FLAC]/13 Rocket Juice & The Moon - Worries.flac

Track gain : -5.64 dB Peak : 0.980713 CRC32 hash (test run) : 798956A8 CRC32 hash : 798956A8 CRC32 hash (skip zero) : D2586528 AccurateRip signature : 03C52AE0 ->Accurately ripped! (confidence 1) Statistics Read error : 0 Jitter error (maybe fixed) : 0 Retry sector count : 0 Damaged sector count : 0

Track 14 Filename : /Volumes/TorrentData/What/Rocket Juice & The Moon - Rocket Juice & The Moon (2012) [FLAC]/14 Rocket Juice & The Moon Feat. Fatoumata Diawara, M.anifest & Hypnotic Brass Ensemble - Benko.flac

Track gain : -7.43 dB Peak : 0.980713 CRC32 hash (test run) : 2864FBFB CRC32 hash : 2864FBFB CRC32 hash (skip zero) : 20B30373 AccurateRip signature : 089D9682 ->Accurately ripped! (confidence 1) Statistics Read error : 0 Jitter error (maybe fixed) : 0 Retry sector count : 0 Damaged sector count : 0

Track 15 Filename : /Volumes/TorrentData/What/Rocket Juice & The Moon - Rocket Juice & The Moon (2012) [FLAC]/15 Rocket Juice & The Moon Feat. M.anifest - The Unfadable.flac

Track gain : -8.67 dB Peak : 0.980713 CRC32 hash (test run) : 225C479C CRC32 hash : 225C479C CRC32 hash (skip zero) : 90C0D4AD AccurateRip signature : 45BE44D4 ->Accurately ripped! (confidence 1) Statistics Read error : 0 Jitter error (maybe fixed) : 0 Retry sector count : 0 Damaged sector count : 0

Track 16 Filename : /Volumes/TorrentData/What/Rocket Juice & The Moon - Rocket Juice & The Moon (2012) [FLAC]/16 Rocket Juice & The Moon Feat. Erykah Badu & M.anifest - Dam(n).flac

Track gain : -5.65 dB Peak : 0.980682 CRC32 hash (test run) : 7485D4B2 CRC32 hash : 7485D4B2 CRC32 hash (skip zero) : 45E7BF3D AccurateRip signature : 25846905 ->Accurately ripped! (confidence 1) Statistics Read error : 0 Jitter error (maybe fixed) : 0 Retry sector count : 0 Damaged sector count : 0

Track 17 Filename : /Volumes/TorrentData/What/Rocket Juice & The Moon - Rocket Juice & The Moon (2012) [FLAC]/17 Rocket Juice & The Moon - Fatherless.flac

Track gain : -5.27 dB Peak : 0.980682 CRC32 hash (test run) : 9AD1F7D1 CRC32 hash : 9AD1F7D1 CRC32 hash (skip zero) : F5570EE1 AccurateRip signature : D790C0B7 ->Accurately ripped! (confidence 1) Statistics Read error : 0 Jitter error (maybe fixed) : 0 Retry sector count : 0 Damaged sector count : 0

Track 18 Filename : /Volumes/TorrentData/What/Rocket Juice & The Moon - Rocket Juice & The Moon (2012) [FLAC]/18 Rocket Juice & The Moon Feat. Hypnotic Brass Ensemble - Leave-Taking.flac

Track gain : -3.95 dB Peak : 0.980652 CRC32 hash (test run) : 338FAA02 CRC32 hash : 338FAA02 CRC32 hash (skip zero) : C2366511 AccurateRip signature : C93193F0 ->Accurately ripped! (confidence 1) Statistics Read error : 0 Jitter error (maybe fixed) : 0 Retry sector count : 0 Damaged sector count : 0

No errors occurred

End of status report


Трекер:  [ 13-Май-2012 13:20 ]

  

Скачать .torrent

Размер .torrent файла 14 KB


Размер: 342 MB
Хэш (hash) релиза: 38fe33eed341f359fce3ebfd11388e1162e5e44a

Еще никто не оставлял запись к записи скачать торрент Rocket Juice & the Moon - Rocket Juice & the Moon - 2012 ALAC, lossless . Будь первым!

!Обратная связь