Скачать через торрент Caprice - Дискография - 2001 - 2006 бесплатно русская версия torrent активатор

Если у вас наблюдаются проблемы со скриншотами, переходом по ссылками, скачиванием торрентов - проблемы в блокировщике рекламы AdBlock. #хорошегоДня!


Статистика раздачи
Размер:  1.7 GB   |    Зарегистрирован:  5 лет 5 месяцев   |    .torrent скачан:  53 раза   |   
Раздают:  1  
   
Загрузка...
 
Автор Сообщение

L


Caprice - Дискография



Год: 2001 - 2006
Страна: Россия
Страна-производитель диска: Россия
Жанр: Neo-Classical
Тип издания: оригинал
Наличие сканов в содержимом раздачи: да
Продолжительность: 04:46:21
Тексты: отсутствуют
Кодек: ALAC
Программа-риповщик : foobar2000 + iTunes (lossless)
Битрейт: lossless
Треклист:
01. The Realm of Faerie
02. Princess Mee
03. Song of The Wind
04. Far Over Misty Mountains
05. Lullaby
06. The Mewlips
07. The Last Dance
08. Song of Amroth and Nimrodel
09. The Road Goes Ever On and On
10. Merrymaking of the Forest Elves
11. Of True Thomas and Faerie Queen
12. Farewell
  
Exact Audio Copy V0.99 prebeta 4 from 23. January 2008

Отчёт EAC об извлечении, выполненном 14. июля 2008, 19:56

Caprice / Elvenmusic

Дисковод: _NEC DVD_RW ND-4551A Adapter: 3 ID: 0

Режим чтения : Достоверность Использование точного потока : Да Отключение кэша аудио : Да Использование указателей C2 : Нет

Коррекция смещения при чтении : 48 Способность читать области Lead-in и Lead-out : Нет Заполнение пропущенных сэмплов тишиной : Да Удаление блоков с тишиной в начале и конце : Нет При вычислениях CRC использовались нулевые сэмплы : Да Интерфейс : Встроенный Win32-интерфейс для Win NT/2000

Выходной формат : Внутренние WAV-операции Формат сэмплов : 44.100 Гц; 16 бит; стерео

TOC извлечённого CD

Трек | Старт | Длительность | Начальный сектор | Конечный сектор --------------------------------------------------------------------- 1 | 0:00.00 | 2:17.47 | 0 | 10321 2 | 2:17.47 | 2:56.29 | 10322 | 23550 3 | 5:14.01 | 3:38.28 | 23551 | 39928 4 | 8:52.29 | 4:43.50 | 39929 | 61203 5 | 13:36.04 | 2:39.46 | 61204 | 73174 6 | 16:15.50 | 4:11.42 | 73175 | 92041 7 | 20:27.17 | 2:41.12 | 92042 | 104128 8 | 23:08.29 | 6:57.59 | 104129 | 135462 9 | 30:06.13 | 2:21.57 | 135463 | 146094 10 | 32:27.70 | 3:41.56 | 146095 | 162725 11 | 36:09.51 | 6:19.15 | 162726 | 191165 12 | 42:28.66 | 3:36.02 | 191166 | 207367

Характеристики диапазона извлечения и сообщения об ошибках

Выбранный диапазон

Имя файла C:\caprice\Caprice - Elvenmusic.wav

Пиковый уровень 96.6 % Качество диапазона 100.0 % CRC копии F64988D4 Копирование... OK

Ошибок не произошло

Конец отчёта
01. Introduction
02. The Echoing Green
03. Laughing Song l
04. Blind Man's Buff
05. Spring l
06. The Fly
07. Long John Brown and Little Mary Bell
08. The Little Boy Lost
09. The Little Girl Found
10. Night
11. Epilogue
  
Exact Audio Copy V0.99 prebeta 4 from 23. January 2008

Отчёт EAC об извлечении, выполненном 14. июля 2008, 18:43

Caprice / Songs of innocence and experience

Дисковод: _NEC DVD_RW ND-4551A Adapter: 3 ID: 0

Режим чтения : Достоверность Использование точного потока : Да Отключение кэша аудио : Да Использование указателей C2 : Нет

Коррекция смещения при чтении : 48 Способность читать области Lead-in и Lead-out : Нет Заполнение пропущенных сэмплов тишиной : Да Удаление блоков с тишиной в начале и конце : Нет При вычислениях CRC использовались нулевые сэмплы : Да Интерфейс : Встроенный Win32-интерфейс для Win NT/2000

Выходной формат : Внутренние WAV-операции Формат сэмплов : 44.100 Гц; 16 бит; стерео

TOC извлечённого CD

Трек | Старт | Длительность | Начальный сектор | Конечный сектор --------------------------------------------------------------------- 1 | 0:00.00 | 2:44.23 | 0 | 12322 2 | 2:44.23 | 3:46.38 | 12323 | 29310 3 | 6:30.61 | 1:38.39 | 29311 | 36699 4 | 8:09.25 | 4:06.05 | 36700 | 55154 5 | 12:15.30 | 3:08.38 | 55155 | 69292 6 | 15:23.68 | 1:14.61 | 69293 | 74903 7 | 16:38.54 | 3:52.31 | 74904 | 92334 8 | 20:31.10 | 1:41.38 | 92335 | 99947 9 | 22:12.48 | 3:22.60 | 99948 | 115157 10 | 25:35.33 | 9:43.49 | 115158 | 158931

Характеристики диапазона извлечения и сообщения об ошибках

Выбранный диапазон

Имя файла C:\caprice\Caprice - Songs of innocence and experience.wav

Пиковый уровень 98.8 % Качество диапазона 100.0 % CRC копии DE37D60A Копирование... OK

Ошибок не произошло

Конец отчёта
01. Rhyme of Lore
02. Of Beren and Luthien
03. O Rowan Fair
04. Bath Song
05. Elves of Rivendell
06. Shadow Bride
07. Galadriel`s Song
08. Galadriel`s Message to Aragorn
09. Galadriel`s Message to Legolas
10. Athelas
11. Elves Rolling Barrels
12. Sam`s Song
13. The Tower of Cirith Ungol
14. Passion (Sam Finds Frodo)
15. Elves Beyond the Sea
16. The Last Ship
  
Exact Audio Copy V0.99 prebeta 4 from 23. January 2008

Отчёт EAC об извлечении, выполненном 14. июля 2008, 19:41

Caprice / The Evening Of Iluvatar's Children

Дисковод: _NEC DVD_RW ND-4551A Adapter: 3 ID: 0

Режим чтения : Достоверность Использование точного потока : Да Отключение кэша аудио : Да Использование указателей C2 : Нет

Коррекция смещения при чтении : 48 Способность читать области Lead-in и Lead-out : Нет Заполнение пропущенных сэмплов тишиной : Да Удаление блоков с тишиной в начале и конце : Нет При вычислениях CRC использовались нулевые сэмплы : Да Интерфейс : Встроенный Win32-интерфейс для Win NT/2000

Выходной формат : Внутренние WAV-операции Формат сэмплов : 44.100 Гц; 16 бит; стерео

TOC извлечённого CD

Трек | Старт | Длительность | Начальный сектор | Конечный сектор --------------------------------------------------------------------- 1 | 0:00.00 | 1:48.47 | 0 | 8146 2 | 1:48.47 | 5:56.67 | 8147 | 34913 3 | 7:45.39 | 2:25.48 | 34914 | 45836 4 | 10:11.12 | 3:09.00 | 45837 | 60011 5 | 13:20.12 | 2:40.20 | 60012 | 72031 6 | 16:00.32 | 3:27.62 | 72032 | 87618 7 | 19:28.19 | 5:24.32 | 87619 | 111950 8 | 24:52.51 | 2:35.60 | 111951 | 123635 9 | 27:28.36 | 2:14.58 | 123636 | 133743 10 | 29:43.19 | 0:56.64 | 133744 | 138007 11 | 30:40.08 | 2:50.63 | 138008 | 150820 12 | 33:30.71 | 1:49.38 | 150821 | 159033 13 | 35:20.34 | 3:05.58 | 159034 | 172966 14 | 38:26.17 | 2:32.54 | 172967 | 184420 15 | 40:58.71 | 3:17.13 | 184421 | 199208 16 | 44:16.09 | 7:34.49 | 199209 | 233307

Характеристики диапазона извлечения и сообщения об ошибках

Выбранный диапазон

Имя файла C:\caprice\Caprice - The Evening Of Iluvatar's Children.wav

Пиковый уровень 100.0 % Качество диапазона 99.9 % CRC копии E36CBB43 Копирование... OK

Ошибок не произошло

Конец отчёта
01. Winter
02. I Saw You Weep
03. A Red, Red Rose
04. The Dole of the King's Daughter
05. Faerie Chime
06. To My Sister
07. Once Kings
08. The Green Bowl
09.Green are the Rashes
10. Juliet's Beauty
11. Autumn
12. Twilight
13. Nothing Will Die
14. Summer
15. Bonus: The Dole of the King's Daugher (remix)
  
Exact Audio Copy V0.99 prebeta 4 from 23. January 2008

Отчёт EAC об извлечении, выполненном 14. июля 2008, 19:11

Caprice / Sister Simplicity

Дисковод: _NEC DVD_RW ND-4551A Adapter: 3 ID: 0

Режим чтения : Достоверность Использование точного потока : Да Отключение кэша аудио : Да Использование указателей C2 : Нет

Коррекция смещения при чтении : 48 Способность читать области Lead-in и Lead-out : Нет Заполнение пропущенных сэмплов тишиной : Да Удаление блоков с тишиной в начале и конце : Нет При вычислениях CRC использовались нулевые сэмплы : Да Интерфейс : Встроенный Win32-интерфейс для Win NT/2000

Выходной формат : Внутренние WAV-операции Формат сэмплов : 44.100 Гц; 16 бит; стерео

TOC извлечённого CD

Трек | Старт | Длительность | Начальный сектор | Конечный сектор --------------------------------------------------------------------- 1 | 0:00.00 | 4:10.06 | 0 | 18755 2 | 4:10.06 | 3:11.13 | 18756 | 33093 3 | 7:21.19 | 2:00.44 | 33094 | 42137 4 | 9:21.63 | 3:08.37 | 42138 | 56274 5 | 12:30.25 | 4:13.24 | 56275 | 75273 6 | 16:43.49 | 3:30.70 | 75274 | 91093 7 | 20:14.44 | 3:38.73 | 91094 | 107516 8 | 23:53.42 | 2:50.15 | 107517 | 120281 9 | 26:43.57 | 2:12.37 | 120282 | 130218 10 | 28:56.19 | 1:57.03 | 130219 | 138996 11 | 30:53.22 | 3:35.54 | 138997 | 155175 12 | 34:29.01 | 3:33.04 | 155176 | 171154 13 | 38:02.05 | 3:23.21 | 171155 | 186400 14 | 41:25.26 | 2:34.41 | 186401 | 197991 15 | 43:59.67 | 3:32.73 | 197992 | 213964 16 | 50:04.65 | 19:31.32 | 225365 | 313221

Характеристики диапазона извлечения и сообщения об ошибках

Имя файла C:\caprice\Caprice - Sister Simplicity.wav

Пиковый уровень 96.6 % Качество диапазона 100.0 % CRC копии C42B7D33 Копирование... OK

Ошибок не произошло

Конец отчёта
01. Enter Laoris
02. Minstrels of Old
03. Yesterday You Danced With Me
04. Black Flower l
05. Two Faeries
06. Bog Dance
07. The Court of Faerie
08. The Forest
09. Summer Night
10. Faeries Stole Bridget l
11. Exit Laoris
12. Maple
  
Exact Audio Copy V0.99 prebeta 4 from 23. January 2008

Отчёт EAC об извлечении, выполненном 14. июля 2008, 16:57

Caprice / Tales of the Uninvited

Дисковод: _NEC DVD_RW ND-4551A Adapter: 3 ID: 0

Режим чтения : Достоверность Использование точного потока : Да Отключение кэша аудио : Да Использование указателей C2 : Нет

Коррекция смещения при чтении : 48 Способность читать области Lead-in и Lead-out : Нет Заполнение пропущенных сэмплов тишиной : Да Удаление блоков с тишиной в начале и конце : Нет При вычислениях CRC использовались нулевые сэмплы : Да Интерфейс : Встроенный Win32-интерфейс для Win NT/2000

Выходной формат : Внутренние WAV-операции Формат сэмплов : 44.100 Гц; 16 бит; стерео

TOC извлечённого CD

Трек | Старт | Длительность | Начальный сектор | Конечный сектор --------------------------------------------------------------------- 1 | 0:00.00 | 3:41.03 | 0 | 16577 2 | 3:41.03 | 4:20.70 | 16578 | 36147 3 | 8:01.73 | 3:09.52 | 36148 | 50374 4 | 11:11.50 | 4:32.70 | 50375 | 70844 5 | 15:44.45 | 4:19.22 | 70845 | 90291 6 | 20:03.67 | 3:27.30 | 90292 | 105846 7 | 23:31.22 | 3:51.25 | 105847 | 123196 8 | 27:22.47 | 8:52.40 | 123197 | 163136 9 | 36:15.12 | 3:25.34 | 163137 | 178545 10 | 39:40.46 | 3:55.20 | 178546 | 196190 11 | 43:35.66 | 4:07.50 | 196191 | 214765 12 | 47:43.41 | 3:54.22 | 214766 | 232337

Характеристики диапазона извлечения и сообщения об ошибках

Выбранный диапазон

Имя файла C:\caprice\Caprice - Tales of the Uninvited.wav

Пиковый уровень 100.0 % Качество диапазона 99.9 % CRC копии 8B2F2A45 Копирование... OK

Ошибок не произошло

Конец отчёта
01. Вступление I
02. Над городом дым
03. Зеркало
04. Интерлюдия
05. Лес
06. Я хочу ждать еще
07. Пауза
08. Второй ад Вертера
09. Вальс
10. Последнее утро
11. Денеб
12. Вступление II
13. Вальс (VERSION by DVAR)
  
Exact Audio Copy V0.99 prebeta 3 from 28. July 2007

Отчёт EAC об извлечении, выполненном 17. января 2008, 20:56

Caprice / Зеркало (1996 ремаст.)

Дисковод: PIONEER DVD-RW DVR-111D Adapter: 0 ID: 1

Режим чтения : Достоверность Использование точного потока : Да Отключение кэша аудио : Да Использование указателей C2 : Нет

Коррекция смещения при чтении : 48 Способность читать области Lead-in и Lead-out : Нет Заполнение пропущенных сэмплов тишиной : Да Удаление блоков с тишиной в начале и конце : Нет При вычислениях CRC использовались нулевые сэмплы : Нет Интерфейс : Установленный внешний ASPI-интерфейс

Выходной формат : Внутренние WAV-операции Формат сэмплов : 44.100 Гц; 16 бит; стерео

TOC извлечённого CD

Трек | Старт | Длительность | Начальный сектор | Конечный сектор --------------------------------------------------------------------- 1 | 0:00.00 | 4:31.62 | 0 | 20386 2 | 4:31.62 | 3:10.07 | 20387 | 34643 3 | 7:41.69 | 8:32.62 | 34644 | 73105 4 | 16:14.56 | 3:02.16 | 73106 | 86771 5 | 19:16.72 | 3:18.56 | 86772 | 101677 6 | 22:35.53 | 4:49.38 | 101678 | 123390 7 | 27:25.16 | 2:17.26 | 123391 | 133691 8 | 29:42.42 | 9:19.58 | 133692 | 175674 9 | 39:02.25 | 2:23.11 | 175675 | 186410 10 | 41:25.36 | 3:19.57 | 186411 | 201392 11 | 44:45.18 | 2:54.43 | 201393 | 214485 12 | 47:39.61 | 3:09.65 | 214486 | 228725 13 | 50:49.51 | 3:06.17 | 228726 | 242692

Характеристики диапазона извлечения и сообщения об ошибках

Выбранный диапазон

Имя файла D:\Audio_Temp\Caprice - Зеркало (1996 ремаст.)\Caprice - Зеркало (1996 ремаст.).wav

Пиковый уровень 98.8 % Качество диапазона 100.0 % CRC копии 32748077 Копирование... OK

Ошибок не произошло

AccurateRip: сводка

Трек 1 нет в базе данных Трек 2 нет в базе данных Трек 3 нет в базе данных Трек 4 нет в базе данных Трек 5 нет в базе данных Трек 6 нет в базе данных Трек 7 нет в базе данных Трек 8 нет в базе данных Трек 9 нет в базе данных Трек 10 нет в базе данных Трек 11 нет в базе данных Трек 12 нет в базе данных Трек 13 нет в базе данных

Ни одного трека нет в базе AccurateRip

Конец отчёта

  
Started at: пятница, 11. 05. 2012. - 10:16.306 files found

1 -===- F:\Music lossless\1\Caprice\Caprice - Elvenmusic\Caprice - Elvenmusic.ape Extracted successfully Conclusion: this track is CDDA with probability 100% Tempfile successfully deleted.

2 -===- F:\Music lossless\1\Caprice\Caprice - Sister Simplicity\Caprice - Sister Simplicity.ape Extracted successfully Conclusion: this track is CDDA with probability 100% Tempfile successfully deleted.

3 -===- F:\Music lossless\1\Caprice\Caprice - Songs of innocence and experience\Caprice - Songs of innocence and experience.ape Extracted successfully Conclusion: this track is CDDA with probability 100% Tempfile successfully deleted.

4 -===- F:\Music lossless\1\Caprice\Caprice - Tales of the Uninvited\Caprice - Tales of the Uninvited.ape Extracted successfully Conclusion: this track is CDDA with probability 100% Tempfile successfully deleted.

5 -===- F:\Music lossless\1\Caprice\Caprice - The Evening Of Iluvatar's Children\Caprice - The Evening Of Iluvatar's Children.ape Extracted successfully Conclusion: this track is CDDA with probability 99% Tempfile successfully deleted.

6 -===- F:\Music lossless\1\Caprice\Caprice - Зеркало (1996 ремаст.)\Caprice - Зеркало (1996 ремаст.).ape Extracted successfully Conclusion: this track is CDDA with probability 99% Tempfile successfully deleted.

Finished at: пятница, 11. 05. 2012. - 10:40.20 (operation time: 0:23.49)

Caprice — российская музыкальная группа, отличающаяся своим акустическим звучанием (использование арфы, скрипки, флейты и др.) с добавлением электроники. Всю музыку пишет композитор Антон Брежестовский. Музыканты Caprice также участвуют в различных российских оркестрах, таких как оркестр Большого театра, Государственная академическая симфоническая капелла России, Государственный симфонический оркестр «Новая Россия». Группа получила известность благодаря своей эльфийской трилогии «Elvenmusic», давшую название и их стилю музыки.
Группа Caprice была создана в 1996 году. В том же году был записан дебютный альбом «Зеркало». Регулярные выступления начались с ноября 1998 года. В период с 1998 по 2005 годы группа создала музыкальный стиль, получивший название «музыка эльфов», записав «Эльфийскую трилогию» (Elvenmusic (2001), The Evening of Iluvatar’s Children (2003) и Tales of the Uninvited (2005)).

Большое место в творчестве группы занимают композиции на стихи британских поэтов, таких как Уильям Блейк, Роберт Бернс, Перси Шелли, Альфред Теннисон, Оскар Уайлд и др. Эта тематика получила отражение в трех альбомах: Songs of Innocence and Experience (2002), Sister Simplicity (2004) и Kywitt! Kywitt! (2008).
«Музыка эльфов» характеризуется тем, что у нее более сложный музыкальный размер, чем в «человеческой музыке» (в основном 5/4 или 7/4), непрерывные равномерные ритмические фигурации арфы и пиццикато низких струнных в басу. Гармония музыки эльфов характеризуется тем, что характерная для классической гармонии мажорная доминанта заменяется в ней минорной или же ее вместо нее звучит субдоминанта. Для музыки эльфов характерны довольно строго установленные гармонические последовательности и иногда присущая только ей особая ладовость . Мелодия музыки эльфов обычно сложна из-за музыкального размера и своей полифоничности — это, скорее, несколько мелодий, исполняемые несколькими инструментами одновременно.
Для вокального исполнения музыки эльфов композитором и лингвистом Антоном Брежестовским был создан язык эльфов Laoris с собственным словарем, грамматикой и письменностью.

Laoris используется в 9 из 12 композиций на альбоме Tales of the Uninvited и в двух композициях из балета The Seasons.
Состав:
Инна Брежестовская — вокал
Александра Корзина — скрипка
Татьяна Струнина — арфа
Владимир Бобовников — флейта
Антон Кончаков — кларнет, бас-кларнет
Алексей Бажалкин — фагот
Алексей Толстов — виолончель
Антон Брежестовский — клавишные, музыка



Трекер:  [ 11-Май-2012 19:44 ]

  

Скачать .torrent

Размер .torrent файла 24 KB


Размер: 1.7 GB
Хэш (hash) релиза: db8765aef9a06ba51d97fd98daccaa3270a3d8b4

Еще никто не оставлял запись к записи скачать торрент Caprice - Дискография - 2001 - 2006 . Будь первым!

!Обратная связь