Скачать через торрент Electric Light Orchestra - The Classic Albums Collection бесплатно русская версия torrent активатор

Если у вас наблюдаются проблемы со скриншотами, переходом по ссылками, скачиванием торрентов - проблемы в блокировщике рекламы AdBlock. #хорошегоДня!


Статистика раздачи
Размер:  3.94 GB   |    Зарегистрирован:  5 лет 5 месяцев   |    .torrent скачан:  40 раз   |   
Раздают:  1  
   
Загрузка...
 
Автор Сообщение

L


Electric Light Orchestra - The Classic Albums Collection (11 CD)

Год: 1971-1986
Страна: UK
Страна-производитель диска: UK
Жанр: Progressive Rock, Art-Rock
Тип издания: ремастер
Издатель (лейбл): Sony Music
Наличие сканов в содержимом раздачи: нет
Продолжительность: 10:26:23
Тексты: отсутствуют
Кодек: ALAC
Программа-риповщик : XLD (lossless)
Битрейт: lossless
Треклист:
01. 10538 Overture
02. Look At Me Now
03. Nellie Takes Her Bow
04. The Battle Of Marston Moor (July 2nd 1644)
05. First Movement (Jumping Biz)
06. Mr. Radio
07. Manhattan Rumble (49th Street Massacre)
08. Queen Of The Hours
09. Whisper In The Night
Bonus Tracks:
10. The Battle Of Marston Moor (Take 1 / Alternate Mix)
11. Nellie Takes Her Bow (Alternate Mix)
12. Mr. Radio (Take 9)
13. 10538 Overture (Take 1 / Alternate Mix)
  
XLD AccurateRip checking logfile

TOC of the selected file Track | Start | Length | Start sector | End sector --------------------------------------------------------- 1 | 00:00:00 | 05:30:04 | 0 | 24753 2 | 05:30:04 | 03:17:16 | 24754 | 39544 3 | 08:47:20 | 05:59:17 | 39545 | 66486 4 | 14:46:37 | 06:03:40 | 66487 | 93751 5 | 20:50:02 | 03:00:46 | 93752 | 107297 6 | 23:50:48 | 05:04:37 | 107298 | 130134 7 | 28:55:10 | 04:22:33 | 130135 | 149817 8 | 33:17:43 | 03:22:63 | 149818 | 165030 9 | 36:40:31 | 04:50:63 | 165031 | 186843 10 | 41:31:19 | 01:00:06 | 186844 | 191349 11 | 42:31:25 | 06:02:11 | 191350 | 218510 12 | 48:33:36 | 05:19:08 | 218511 | 242443 13 | 53:52:44 | 05:46:04 | 242444 | 268397

List of alternate offset correction values (1) -634 (confidence 37)

AccurateRip Summary Track 01 : OK (AR2, confidence 8, with different offset) Track 02 : OK (AR2, confidence 8, with different offset) Track 03 : OK (AR2, confidence 8, with different offset) Track 04 : OK (AR2, confidence 8, with different offset) Track 05 : OK (AR2, confidence 8, with different offset) Track 06 : OK (AR2, confidence 8, with different offset) Track 07 : OK (AR2, confidence 8, with different offset) Track 08 : OK (AR2, confidence 8, with different offset) Track 09 : OK (AR2, confidence 8, with different offset) Track 10 : OK (AR2, confidence 8, with different offset) Track 11 : OK (AR2, confidence 8, with different offset) Track 12 : OK (AR2, confidence 8, with different offset) Track 13 : OK (AR2, confidence 7, with different offset) ->All tracks accurately ripped.

All Tracks Album gain : -5.13 dB Peak : 0.988190 CRC32 hash : DB6373C9 CRC32 hash (skip zero) : 13A0883E
01. In Old England Town (Boogie No.2)
02. Mama...
03. Roll Over Beethoven
04. From The Sun To The World (Boogie No.1)
05. Kuiama
Bonus Tracks:
06. In Old England Town (Instrumental)
07. Baby I Apologise (Session Outtake)
08. In Old England Town (Take 1 / Alternate Mix)
09. Roll Over Beethoven (Take 1 / Alternate Mix)
  
TOC of the selected file Track | Start | Length | Start sector | End sector --------------------------------------------------------- 1 | 00:00:00 | 06:57:49 | 0 | 31323 2 | 06:57:49 | 06:59:32 | 31324 | 62780 3 | 13:57:06 | 07:04:27 | 62781 | 94607 4 | 21:01:33 | 08:17:51 | 94608 | 131933 5 | 29:19:09 | 11:17:45 | 131934 | 182753 6 | 40:36:54 | 02:43:46 | 182754 | 195024 7 | 43:20:25 | 03:43:56 | 195025 | 211805 8 | 47:04:06 | 06:56:01 | 211806 | 243006 9 | 54:00:07 | 08:15:40 | 243007 | 280171

List of alternate offset correction values (1) -634 (confidence 39)

AccurateRip Summary Track 01 : OK (AR2, confidence 7, with different offset) Track 02 : OK (AR2, confidence 7, with different offset) Track 03 : OK (AR2, confidence 7, with different offset) Track 04 : OK (AR2, confidence 7, with different offset) Track 05 : OK (AR2, confidence 7, with different offset) Track 06 : OK (AR2, confidence 7, with different offset) Track 07 : OK (AR2, confidence 7, with different offset) Track 08 : OK (AR2, confidence 7, with different offset) Track 09 : OK (AR2, confidence 7, with different offset) ->All tracks accurately ripped.

All Tracks Album gain : -7.48 dB Peak : 1.000000 CRC32 hash : A568FF35 CRC32 hash (skip zero) : B821EF05
01. Ocean Breakup / King Of The Universe
02. Bluebird Is Dead
03. Oh No Not Susan
04. New World Rising / Ocean Breakup Reprise
05. Showdown
06. Daybreaker
07. Ma-Ma-Ma Belle
08. Dreaming Of 4000
09. In The Hall Of The Mountain King
Bonus Tracks:
10. Auntie ('Ma-Ma-Ma Belle' Take 1)
11. Auntie ('Ma-Ma-Ma Belle' Take 2)
12. Mambo ('Dreaming Of 4000' Alternate Mix)
13. Everyone's Born To Die
14. Interludes (Previously Unreleased)
  
TOC of the selected file Track | Start | Length | Start sector | End sector --------------------------------------------------------- 1 | 00:00:00 | 04:07:05 | 0 | 18529 2 | 04:07:05 | 04:42:58 | 18530 | 39737 3 | 08:49:63 | 03:07:15 | 39738 | 53777 4 | 11:57:03 | 04:05:05 | 53778 | 72157 5 | 16:02:08 | 04:09:17 | 72158 | 90849 6 | 20:11:25 | 03:51:26 | 90850 | 108200 7 | 24:02:51 | 03:56:47 | 108201 | 125947 8 | 27:59:23 | 05:04:27 | 125948 | 148774 9 | 33:03:50 | 06:37:51 | 148775 | 178600 10 | 39:41:26 | 01:19:15 | 178601 | 184540 11 | 41:00:41 | 04:05:08 | 184541 | 202923 12 | 45:05:49 | 05:05:12 | 202924 | 225810 13 | 50:10:61 | 03:43:30 | 225811 | 242565 14 | 53:54:16 | 03:40:43 | 242566 | 259108

List of alternate offset correction values (1) -634 (confidence 43) (2) 647 (confidence 33) (3) -1310 (confidence 4) (4) 12 (confidence 4)

AccurateRip Summary Track 01 : OK (AR2, confidence 5, with different offset) Track 02 : OK (AR2, confidence 5, with different offset) Track 03 : OK (AR2, confidence 5, with different offset) Track 04 : OK (AR2, confidence 5, with different offset) Track 05 : OK (AR2, confidence 5, with different offset) Track 06 : OK (AR2, confidence 5, with different offset) Track 07 : OK (AR2, confidence 5, with different offset) Track 08 : OK (AR2, confidence 5, with different offset) Track 09 : OK (AR2, confidence 5, with different offset) Track 10 : OK (AR2, confidence 5, with different offset) Track 11 : OK (AR2, confidence 5, with different offset) Track 12 : OK (AR2, confidence 5, with different offset) Track 13 : OK (AR2, confidence 5, with different offset) Track 14 : OK (AR2, confidence 4, with different offset) ->All tracks accurately ripped.

All Tracks Album gain : -6.66 dB Peak : 0.999054 CRC32 hash : 9FD10955 CRC32 hash (skip zero) : ADFC3524
01. Eldorado Overture
02. Can't Get It Out Of My Head
03. Boy Blue
04. Laredo Tornado
05. Poor Boy (The Greenwood)
06. Mister Kingdom
07. Nobody's Child
08. Illusions In G Major
09. Eldorado
10. Eldorado Finale
Bonus Tracks:
11. Eldorado Instrumental Medley (Previously Unreleased)
12. Dark City (Previously Unreleased)
  
TOC of the selected file Track | Start | Length | Start sector | End sector --------------------------------------------------------- 1 | 00:00:00 | 02:12:12 | 0 | 9911 2 | 02:12:12 | 04:21:63 | 9912 | 29549 3 | 06:34:00 | 05:19:00 | 29550 | 53474 4 | 11:53:00 | 05:29:57 | 53475 | 78206 5 | 17:22:57 | 02:57:55 | 78207 | 91536 6 | 20:20:37 | 05:29:48 | 91537 | 116259 7 | 25:50:10 | 03:56:42 | 116260 | 134001 8 | 29:46:52 | 02:37:28 | 134002 | 145804 9 | 32:24:05 | 05:17:62 | 145805 | 169641 10 | 37:41:67 | 01:34:50 | 169642 | 176741 11 | 39:16:42 | 07:56:48 | 176742 | 212489 12 | 47:13:15 | 00:46:35 | 212490 | 215974

AccurateRip Summary Track 01 : OK (confidence 6) Track 02 : OK (confidence 7) Track 03 : OK (confidence 6) Track 04 : OK (confidence 7) Track 05 : OK (confidence 6) Track 06 : OK (confidence 6) Track 07 : OK (confidence 6) Track 08 : OK (confidence 6) Track 09 : OK (confidence 7) Track 10 : OK (confidence 6) Track 11 : OK (confidence 6) Track 12 : OK (confidence 6) ->All tracks accurately ripped.

All Tracks Album gain : -6.67 dB Peak : 0.999969 CRC32 hash : 0491C211 CRC32 hash (skip zero) : 161F0EC5
01. Fire On High
02. Waterfall
03. Evil Woman
04. Nightrider
05. Poker
06. Strange Magic
07. Down Home Town
08. One Summer Dream
Bonus Tracks:
09. Fire On High Intro (Early Alternate Mix)
10. Evil Woman (Stripped Down Mix)
11. Strange Magic (U.S. Single Edit)
12. Waterfall (Instrumental Mix)
  
TOC of the selected file Track | Start | Length | Start sector | End sector --------------------------------------------------------- 1 | 00:00:00 | 05:31:43 | 0 | 24867 2 | 05:31:43 | 04:11:57 | 24868 | 43749 3 | 09:43:25 | 04:29:63 | 43750 | 63987 4 | 14:13:13 | 04:26:12 | 63988 | 83949 5 | 18:39:25 | 03:32:36 | 83950 | 99885 6 | 22:11:61 | 04:29:47 | 99886 | 120107 7 | 26:41:33 | 03:54:64 | 120108 | 137721 8 | 30:36:22 | 05:51:01 | 137722 | 164047 9 | 36:27:23 | 03:23:23 | 164048 | 179295 10 | 39:50:46 | 05:00:13 | 179296 | 201808 11 | 44:50:59 | 03:27:63 | 201809 | 217396 12 | 48:18:47 | 04:15:12 | 217397 | 236533

List of alternate offset correction values (1) -634 (confidence 60) (2) 48 (confidence 48) (3) 12 (confidence 5)

AccurateRip Summary Track 01 : OK (AR2, confidence 10, with different offset) Track 02 : OK (AR2, confidence 10, with different offset) Track 03 : OK (AR2, confidence 10, with different offset) Track 04 : OK (AR2, confidence 10, with different offset) Track 05 : OK (AR2, confidence 10, with different offset) Track 06 : OK (AR2, confidence 10, with different offset) Track 07 : OK (AR2, confidence 10, with different offset) Track 08 : OK (AR2, confidence 10, with different offset) Track 09 : OK (AR2, confidence 10, with different offset) Track 10 : OK (AR2, confidence 10, with different offset) Track 11 : OK (AR2, confidence 10, with different offset) Track 12 : OK (AR2, confidence 10, with different offset) ->All tracks accurately ripped.

All Tracks Album gain : -6.93 dB Peak : 1.000000 CRC32 hash : EE9BF79C CRC32 hash (skip zero) : 174064EC
01. Tightrope
02. Telephone Line
03. Rockaria!
04. Mission (A World Record)
05. So Fine
06. Livin' Thing
07. Above The Clouds
08. Do Ya
09. Shangri-La
Bonus Tracks:
10. Telephone Line (Different Vocal)
11. Surrender
12. Tightrope (Instrumental Early Rough Mix)
13. Above The Clouds (Instrumental Rough Mix)
14. So Fine (Instrumental Early Rough Mix)
15. Telephone Line (Instrumental)
  
TOC of the selected file Track | Start | Length | Start sector | End sector --------------------------------------------------------- 1 | 00:00:00 | 05:06:06 | 0 | 22955 2 | 05:06:06 | 04:40:27 | 22956 | 43982 3 | 09:46:33 | 03:12:63 | 43983 | 58445 4 | 12:59:21 | 04:25:56 | 58446 | 78376 5 | 17:25:02 | 03:55:34 | 78377 | 96035 6 | 21:20:36 | 03:32:23 | 96036 | 111958 7 | 24:52:59 | 02:17:07 | 111959 | 122240 8 | 27:09:66 | 03:45:08 | 122241 | 139123 9 | 30:54:74 | 05:40:09 | 139124 | 164632 10 | 36:35:08 | 04:41:34 | 164633 | 185741 11 | 41:16:42 | 02:37:36 | 185742 | 197552 12 | 43:54:03 | 04:55:40 | 197553 | 219717 13 | 48:49:43 | 01:14:57 | 219718 | 225324 14 | 50:04:25 | 04:16:28 | 225325 | 244552 15 | 54:20:53 | 04:51:30 | 244553 | 266407

List of alternate offset correction values (1) -634 (confidence 81) (2) 48 (confidence 68) (3) 647 (confidence 17) (4) 12 (confidence 4)

AccurateRip Summary Track 01 : OK (AR2, confidence 13, with different offset) Track 02 : OK (AR2, confidence 13, with different offset) Track 03 : OK (AR2, confidence 13, with different offset) Track 04 : OK (AR2, confidence 13, with different offset) Track 05 : OK (AR2, confidence 13, with different offset) Track 06 : OK (AR2, confidence 13, with different offset) Track 07 : OK (AR2, confidence 13, with different offset) Track 08 : OK (AR2, confidence 13, with different offset) Track 09 : OK (AR2, confidence 13, with different offset) Track 10 : OK (AR2, confidence 13, with different offset) Track 11 : OK (AR2, confidence 13, with different offset) Track 12 : OK (AR2, confidence 13, with different offset) Track 13 : OK (AR2, confidence 13, with different offset) Track 14 : OK (AR2, confidence 13, with different offset) Track 15 : OK (AR2, confidence 13, with different offset) ->All tracks accurately ripped.

All Tracks Album gain : -7.49 dB Peak : 0.999969 CRC32 hash : 2ECD5756 CRC32 hash (skip zero) : B6BF6D7E
01. Turn To Stone
02. It's Over
03. Sweet Talkin' Woman
04. Across The Border
05. Night In The City
06. Starlight
07. Jungle
08. Believe Me Now
09. Steppin' Out
10. Standin' In The Rain
11. Big Wheels
12. Summer And Lightning
13. Mr. Blue Sky
14. Sweet Is The Night
15. Whale
16. Birmingham Blues
17. Wild West Hero
Bonus Tracks:
18. Wild West Hero (Previously Unreleased Alternate Bridge / Home Demo)
19. The Quick And The Daft (Previously Unreleased)
20. Latitude 88 North (Previously Unreleased)
  
TOC of the selected file Track | Start | Length | Start sector | End sector --------------------------------------------------------- 1 | 00:00:00 | 03:49:07 | 0 | 17181 2 | 03:49:07 | 04:08:65 | 17182 | 35846 3 | 07:57:72 | 03:49:65 | 35847 | 53086 4 | 11:47:62 | 03:53:60 | 53087 | 70621 5 | 15:41:47 | 04:03:70 | 70622 | 88916 6 | 19:45:42 | 04:31:60 | 88917 | 109301 7 | 24:17:27 | 03:53:22 | 109302 | 126798 8 | 28:10:49 | 01:21:20 | 126799 | 132893 9 | 29:31:69 | 04:40:35 | 132894 | 153928 10 | 34:12:29 | 03:59:65 | 153929 | 171918 11 | 38:12:19 | 05:32:16 | 171919 | 196834 12 | 43:44:35 | 04:14:72 | 196835 | 215956 13 | 47:59:32 | 05:03:28 | 215957 | 238709 14 | 53:02:60 | 03:27:71 | 238710 | 254305 15 | 56:30:56 | 05:07:26 | 254306 | 277356 16 | 61:38:07 | 04:23:49 | 277357 | 297130 17 | 66:01:56 | 04:45:51 | 297131 | 318556 18 | 70:47:32 | 00:26:14 | 318557 | 320520 19 | 71:13:46 | 01:49:71 | 320521 | 328766 20 | 73:03:42 | 03:24:03 | 328767 | 344069

List of alternate offset correction values (1) 12 (confidence 58)

AccurateRip Summary Track 01 : OK (AR2, confidence 5, with different offset) Track 02 : OK (AR2, confidence 5, with different offset) Track 03 : OK (AR2, confidence 5, with different offset) Track 04 : OK (AR2, confidence 5, with different offset) Track 05 : OK (AR2, confidence 5, with different offset) Track 06 : OK (AR2, confidence 5, with different offset) Track 07 : OK (AR2, confidence 5, with different offset) Track 08 : OK (AR2, confidence 5, with different offset) Track 09 : OK (AR2, confidence 5, with different offset) Track 10 : OK (AR2, confidence 5, with different offset) Track 11 : OK (AR2, confidence 5, with different offset) Track 12 : OK (AR2, confidence 5, with different offset) Track 13 : OK (AR2, confidence 5, with different offset) Track 14 : OK (AR2, confidence 5, with different offset) Track 15 : OK (AR2, confidence 5, with different offset) Track 16 : OK (AR2, confidence 5, with different offset) Track 17 : OK (AR2, confidence 4, with different offset) Track 18 : OK (AR2, confidence 5, with different offset) Track 19 : OK (AR2, confidence 5, with different offset) Track 20 : OK (AR2, confidence 5, with different offset) ->All tracks accurately ripped.

All Tracks Album gain : -6.60 dB Peak : 1.000000 CRC32 hash : BF7F82AC CRC32 hash (skip zero) : 6EB12B88
01. Shine A Little Love
02. Confusion
03. Need Her Love
04. The Diary Of Horace Wimp
05. Last Train To London
06. Midnight Blue
07. On The Run
08. Wishing
09. Don't Bring Me Down
Bonus Tracks:
10. On The Run (Previously Unissued Home Demo 1979)
11. Second Time Around (Previously Unissued Home Demo 1979)
12. Little Town Flirt (Previously Unissued)
  
TOC of the selected file Track | Start | Length | Start sector | End sector --------------------------------------------------------- 1 | 00:00:00 | 04:42:50 | 0 | 21199 2 | 04:42:50 | 03:42:45 | 21200 | 37894 3 | 08:25:20 | 05:11:70 | 37895 | 61289 4 | 13:37:15 | 04:17:72 | 61290 | 80636 5 | 17:55:12 | 04:31:23 | 80637 | 100984 6 | 22:26:35 | 04:19:12 | 100985 | 120421 7 | 26:45:47 | 03:55:65 | 120422 | 138111 8 | 30:41:37 | 04:13:50 | 138112 | 157136 9 | 34:55:12 | 04:06:30 | 157137 | 175616 10 | 39:01:42 | 01:01:33 | 175617 | 180224 11 | 40:03:00 | 00:43:30 | 180225 | 183479 12 | 40:46:30 | 02:53:27 | 183480 | 196481

List of alternate offset correction values (1) 48 (confidence 3)

AccurateRip Summary Track 01 : OK (AR2, confidence 2) Track 02 : OK (AR2, confidence 2) Track 03 : OK (AR2, confidence 2) Track 04 : OK (AR2, confidence 2) Track 05 : OK (AR2, confidence 2) Track 06 : OK (AR2, confidence 2) Track 07 : OK (AR2, confidence 2) Track 08 : OK (AR2, confidence 2) Track 09 : OK (AR2, confidence 2) Track 10 : OK (AR2, confidence 2) Track 11 : OK (AR2, confidence 2) Track 12 : OK (AR2, confidence 2) ->All tracks accurately ripped.

All Tracks Album gain : -6.50 dB Peak : 0.998962 CRC32 hash : 00378215 CRC32 hash (skip zero) : 4AED9F66
01. Prologue
02. Twilight
03. Yours Truly, 2095
04. Ticket To The Moon
05. The Way Life's Meant To Be
06. Another Heart Breaks
07. Rain Is Falling
08. From The End Of The World
09. The Lights Go Down
10. Here Is The News
11. 21st Century Man
12. Hold On Tight
13. Epilogue
Bonus Tracks:
14. The Bouncer (B-Side Of UK "Four Little Diamonds" 12" Single)
15. When Time Stood Still (B-Side Of UK "Hold Of Tight" 12" Single)
16. Julie Don't Live Here (B-Side Of UK "Twilight" 12' Single)
  
TOC of the selected file Track | Start | Length | Start sector | End sector --------------------------------------------------------- 1 | 00:00:00 | 01:15:72 | 0 | 5696 2 | 01:15:72 | 03:41:65 | 5697 | 22336 3 | 04:57:62 | 03:12:00 | 22337 | 36736 4 | 08:09:62 | 04:07:13 | 36737 | 55274 5 | 12:17:00 | 04:38:67 | 55275 | 76191 6 | 16:55:67 | 03:49:28 | 76192 | 93394 7 | 20:45:20 | 03:55:37 | 93395 | 111056 8 | 24:40:57 | 03:16:48 | 111057 | 125804 9 | 27:57:30 | 03:33:35 | 125805 | 141814 10 | 31:30:65 | 03:49:55 | 141815 | 159044 11 | 35:20:45 | 04:02:70 | 159045 | 177264 12 | 39:23:40 | 03:06:30 | 177265 | 191244 13 | 42:29:70 | 01:36:02 | 191245 | 198446 14 | 44:05:72 | 03:14:50 | 198447 | 213046 15 | 47:20:47 | 03:33:00 | 213047 | 229021 16 | 50:53:47 | 03:41:73 | 229022 | 245669

List of alternate offset correction values (1) 48 (confidence 3)

AccurateRip Summary Track 01 : OK (AR2, confidence 2) Track 02 : OK (AR2, confidence 2) Track 03 : OK (AR2, confidence 2) Track 04 : OK (AR2, confidence 2) Track 05 : OK (AR2, confidence 2) Track 06 : OK (AR2, confidence 2) Track 07 : OK (AR2, confidence 2) Track 08 : OK (AR2, confidence 2) Track 09 : OK (AR2, confidence 2) Track 10 : OK (AR2, confidence 2) Track 11 : OK (AR2, confidence 2) Track 12 : OK (AR2, confidence 2) Track 13 : OK (AR2, confidence 2) Track 14 : OK (AR2, confidence 2) Track 15 : OK (AR2, confidence 2) Track 16 : OK (AR2, confidence 2) ->All tracks accurately ripped.

All Tracks Album gain : -6.89 dB Peak : 0.999969 CRC32 hash : DB6E7759 CRC32 hash (skip zero) : 72424D55
01. Secret Messages
02. Loser Gone Wild
03. Bluebird
04. Take Me On And On
05. Time After Time
06. Four Little Diamonds
07. Stranger
08. Danger Ahead
09. Letter From Spain
10. Train Of Gold
11. Rock 'N' Roll Is King
Bonus Tracks:
12. No Way Out (Unused Track From The Original Double Album Version Of Secret Messages)
13. Endless Lies (Previously Unreleased / Unused Track From The Original Double Album Version Of Secret Messages)
14. After All (B-Side Of ''Rock 'N' Roll Is King'' Single)
01. Heaven Only Knows
02. So Serious
03. Getting To The Point
04. Secret Lives
05. Is It Alright
06. Sorrow About To Fall
07. Without Someone
08. Calling America
09. Endless Lies
10. Send It
Bonus Tracks:
11. Opening
12. Heaven Only Knows (Alternate Version)
13. In For The Kill
14. Secret Lives (Alternate Take)
15. Sorrow About To Fall (Alternate Mix)
16. Caught In A Trap (B-Side Of UK Single)
17. Destination Unknown (B-Side Of UK Single)
  
TOC of the selected file Track | Start | Length | Start sector | End sector --------------------------------------------------------- 1 | 00:00:00 | 02:56:41 | 0 | 13240 2 | 02:56:41 | 02:43:63 | 13241 | 25528 3 | 05:40:29 | 04:30:41 | 25529 | 45819 4 | 10:10:70 | 03:31:73 | 45820 | 61717 5 | 13:42:68 | 03:27:14 | 61718 | 77256 6 | 17:10:07 | 04:04:62 | 77257 | 95618 7 | 21:14:69 | 03:51:04 | 95619 | 112947 8 | 25:05:73 | 03:30:40 | 112948 | 128737 9 | 28:36:38 | 03:00:01 | 128738 | 142238 10 | 31:36:39 | 03:10:20 | 142239 | 156508 11 | 34:46:59 | 00:24:09 | 156509 | 158317 12 | 35:10:68 | 02:34:61 | 158318 | 169928 13 | 37:45:54 | 03:16:12 | 169929 | 184640 14 | 41:01:66 | 03:26:67 | 184641 | 200157 15 | 44:28:58 | 03:50:45 | 200158 | 217452 16 | 48:19:28 | 03:47:31 | 217453 | 234508 17 | 52:06:59 | 04:10:24 | 234509 | 253282

List of alternate offset correction values (1) 12 (confidence 25)

AccurateRip Summary Track 01 : OK (AR2, confidence 4) Track 02 : OK (AR2, confidence 4) Track 03 : OK (AR2, confidence 4) Track 04 : OK (AR2, confidence 4) Track 05 : OK (AR2, confidence 4) Track 06 : OK (AR2, confidence 4) Track 07 : OK (AR2, confidence 4) Track 08 : OK (AR2, confidence 4) Track 09 : OK (AR2, confidence 4) Track 10 : OK (AR2, confidence 4) Track 11 : OK (AR2, confidence 4) Track 12 : OK (AR2, confidence 4) Track 13 : OK (AR2, confidence 4) Track 14 : OK (AR2, confidence 4) Track 15 : OK (AR2, confidence 4) Track 16 : OK (AR2, confidence 4) Track 17 : OK (AR2, confidence 4) ->All tracks accurately ripped.

All Tracks Album gain : -6.20 dB Peak : 0.997437 CRC32 hash : 8A1243F2 CRC32 hash (skip zero) : 95B68F2E
Доп. информация: Electric Light Orchestra (сокращённо ELO; читается: илэктрик лайт окистра) — британская рок-группа из Бирмингема, созданная Джеффом Линном и Роем Вудом в 1970. Группа была особенно популярна в 1970-е — 1980-е.
ELO выпустила 11 студийных альбомов в период между 1971 и 1986 годом и один альбом в 2001. ELO (совместная идея Роя Вуда и Джеффа Линна) была сформирована, чтобы удовлетворить горячее желание писать «классическую» поп-музыку. Группа экспериментировала в различных музыкальных направлениях: от прогрессивного рока до поп-музыки. С самого начала деятельности группы Джефф Линн решал все организационные вопросы, написал все оригинальные композиции группы и продюсировал каждый альбом.
Первый успех группу ожидал в Соединённых Штатах, где они были представлены как «Английские парни с большими скрипками». К середине 1970-х они стали одними из самых продаваемых музыкальных групп. С 1972 по 1986 год ELO сочетали работу в Великобритании и Штатах. Группа просуществовала до 1986 года, после чего Джефф Линн распустил её. Источник: nnm-club

Трекер:  [ 11-Май-2012 19:43 ]

  

Скачать .torrent

Размер .torrent файла 53 KB


Размер: 3.94 GB
Хэш (hash) релиза: a1b14299e8248f7ff89f2a10283d4fa5781c7f00

Еще никто не оставлял запись к записи скачать торрент Electric Light Orchestra - The Classic Albums Collection . Будь первым!

!Обратная связь