Скачать через торрент The Walkmen - Lisbon - 2010 ALAC, lossless бесплатно русская версия torrent активатор

Если у вас наблюдаются проблемы со скриншотами, переходом по ссылками, скачиванием торрентов - проблемы в блокировщике рекламы AdBlock. #хорошегоДня!


Статистика раздачи
Размер:  280 MB   |    Зарегистрирован:  5 лет 5 месяцев   |    .torrent скачан:  27 раз   |   
Раздают:  1  
   
Загрузка...
 
Автор Сообщение

L


The Walkmen - Lisbon

Год: 2010
Страна: US
Жанр: Indie
Издатель (лейбл): Fat Possum
Продолжительность: 44:55
Тексты: вшиты
Кодек: ALAC
Программа-риповщик : foobar2000 + iTunes (lossless)
Битрейт: lossless
Треклист:
01. Juveniles
02. Angela Surf City
03. Follow the Leader
04. Blue As Your Blood
05. Stranded
06. Victory
07. All My Great Designs
08. Woe Is Me
09. Torch Song
10. While I Shovel the Snow
11. Lisbon
  
X Lossless Decoder version 20100518 (120.3)

XLD extraction logfile from 2010-08-30 14:32:10 -0400

/ Audio CD

Used drive : MATSHITA DVD-R UJ-868 (revision KB19)

Use cdparanoia mode : YES (CDParanoia III 10.2 engine)Disable audio cache : OK for the drive with cache less than 2750KBMake use of C2 pointers : NORead offset correction : 102Max retry count : 100

TOC of the extracted CD Track | Start | Length | Start sector | End sector --------------------------------------------------------- 1 | 00:00:00 | 04:27:12 | 0 | 20036 2 | 04:27:12 | 03:23:19 | 20037 | 35280 3 | 07:50:31 | 02:01:31 | 35281 | 44386 4 | 09:51:62 | 04:16:45 | 44387 | 63631 5 | 14:08:32 | 04:27:22 | 63632 | 83678 6 | 18:35:54 | 04:06:66 | 83679 | 102194 7 | 22:42:45 | 04:42:67 | 102195 | 123411 8 | 27:25:37 | 03:29:19 | 123412 | 139105 9 | 30:54:56 | 04:07:54 | 139106 | 157684 10 | 35:02:35 | 04:00:19 | 157685 | 175703 11 | 39:02:54 | 05:57:08 | 175704 | 202486

Track 01 Filename : /Users/Thom/Desktop/Walkmen - Lisbon (2010) FLAC/01 Track 01.flac

Pre-gap length : 00:02:00

CRC32 hash (test run) : A43588F6 CRC32 hash : A43588F6 CRC32 hash (skip zero) : 7F2D2FD0 AccurateRip signature : A629C375 ->Track not present in AccurateRip database. Statistics Read error : 0 Skipped (treated as error) : 0 Edge jitter error (maybe fixed) : 0 Atom jitter error (maybe fixed) : 0 Drift error (maybe fixed) : 0 Dropped bytes error (maybe fixed) : 0 Duplicated bytes error (maybe fixed) : 0

Track 02 Filename : /Users/Thom/Desktop/Walkmen - Lisbon (2010) FLAC/02 Track 02.flac

Pre-gap length : 00:01:53

CRC32 hash (test run) : 1DA5AB25 CRC32 hash : 1DA5AB25 CRC32 hash (skip zero) : 92E50CCA AccurateRip signature : 1FF9013D ->Track not present in AccurateRip database. Statistics Read error : 0 Skipped (treated as error) : 0 Edge jitter error (maybe fixed) : 0 Atom jitter error (maybe fixed) : 0 Drift error (maybe fixed) : 0 Dropped bytes error (maybe fixed) : 0 Duplicated bytes error (maybe fixed) : 0

Track 03 Filename : /Users/Thom/Desktop/Walkmen - Lisbon (2010) FLAC/03 Track 03.flac

Pre-gap length : 00:04:06

CRC32 hash (test run) : 019484DC CRC32 hash : 019484DC CRC32 hash (skip zero) : 73F8DF24 AccurateRip signature : 6ABF726B ->Track not present in AccurateRip database. Statistics Read error : 0 Skipped (treated as error) : 0 Edge jitter error (maybe fixed) : 0 Atom jitter error (maybe fixed) : 0 Drift error (maybe fixed) : 0 Dropped bytes error (maybe fixed) : 0 Duplicated bytes error (maybe fixed) : 0

Track 04 Filename : /Users/Thom/Desktop/Walkmen - Lisbon (2010) FLAC/04 Track 04.flac

Pre-gap length : 00:04:28

CRC32 hash (test run) : E9E48160 CRC32 hash : E9E48160 CRC32 hash (skip zero) : 991B1A5B AccurateRip signature : 73CDB4E7 ->Track not present in AccurateRip database. Statistics Read error : 0 Skipped (treated as error) : 0 Edge jitter error (maybe fixed) : 0 Atom jitter error (maybe fixed) : 0 Drift error (maybe fixed) : 0 Dropped bytes error (maybe fixed) : 0 Duplicated bytes error (maybe fixed) : 0

Track 05 Filename : /Users/Thom/Desktop/Walkmen - Lisbon (2010) FLAC/05 Track 05.flac

Pre-gap length : 00:03:35

CRC32 hash (test run) : B7BF7D9A CRC32 hash : B7BF7D9A CRC32 hash (skip zero) : F40A02DE AccurateRip signature : D7A3E8CF ->Track not present in AccurateRip database. Statistics Read error : 0 Skipped (treated as error) : 0 Edge jitter error (maybe fixed) : 0 Atom jitter error (maybe fixed) : 0 Drift error (maybe fixed) : 0 Dropped bytes error (maybe fixed) : 0 Duplicated bytes error (maybe fixed) : 0

Track 06 Filename : /Users/Thom/Desktop/Walkmen - Lisbon (2010) FLAC/06 Track 06.flac

Pre-gap length : 00:04:47

CRC32 hash (test run) : 7C180A99 CRC32 hash : 7C180A99 CRC32 hash (skip zero) : 04380536 AccurateRip signature : 40F1649C ->Track not present in AccurateRip database. Statistics Read error : 0 Skipped (treated as error) : 0 Edge jitter error (maybe fixed) : 1 Atom jitter error (maybe fixed) : 1 Drift error (maybe fixed) : 0 Dropped bytes error (maybe fixed) : 0 Duplicated bytes error (maybe fixed) : 0

Track 07 Filename : /Users/Thom/Desktop/Walkmen - Lisbon (2010) FLAC/07 Track 07.flac

Pre-gap length : 00:03:62

CRC32 hash (test run) : 6FB285BE CRC32 hash : 6FB285BE CRC32 hash (skip zero) : 1E94971D AccurateRip signature : 6D9AEF16 ->Track not present in AccurateRip database. Statistics Read error : 0 Skipped (treated as error) : 0 Edge jitter error (maybe fixed) : 0 Atom jitter error (maybe fixed) : 0 Drift error (maybe fixed) : 0 Dropped bytes error (maybe fixed) : 0 Duplicated bytes error (maybe fixed) : 0

Track 08 Filename : /Users/Thom/Desktop/Walkmen - Lisbon (2010) FLAC/08 Track 08.flac

Pre-gap length : 00:03:02

CRC32 hash (test run) : 1722E03E CRC32 hash : 1722E03E CRC32 hash (skip zero) : 1531FECD AccurateRip signature : 5E7E843F ->Track not present in AccurateRip database. Statistics Read error : 0 Skipped (treated as error) : 0 Edge jitter error (maybe fixed) : 0 Atom jitter error (maybe fixed) : 0 Drift error (maybe fixed) : 0 Dropped bytes error (maybe fixed) : 0 Duplicated bytes error (maybe fixed) : 0

Track 09 Filename : /Users/Thom/Desktop/Walkmen - Lisbon (2010) FLAC/09 Track 09.flac

Pre-gap length : 00:03:27

CRC32 hash (test run) : 14E31EA9 CRC32 hash : 14E31EA9 CRC32 hash (skip zero) : B90D1AF1 AccurateRip signature : 8A5B2427 ->Track not present in AccurateRip database. Statistics Read error : 0 Skipped (treated as error) : 0 Edge jitter error (maybe fixed) : 0 Atom jitter error (maybe fixed) : 0 Drift error (maybe fixed) : 0 Dropped bytes error (maybe fixed) : 0 Duplicated bytes error (maybe fixed) : 0

Track 10 Filename : /Users/Thom/Desktop/Walkmen - Lisbon (2010) FLAC/10 Track 10.flac

Pre-gap length : 00:04:47

CRC32 hash (test run) : 4C374492 CRC32 hash : 4C374492 CRC32 hash (skip zero) : 238DFF30 AccurateRip signature : 8058F4B1 ->Track not present in AccurateRip database. Statistics Read error : 0 Skipped (treated as error) : 0 Edge jitter error (maybe fixed) : 0 Atom jitter error (maybe fixed) : 0 Drift error (maybe fixed) : 0 Dropped bytes error (maybe fixed) : 0 Duplicated bytes error (maybe fixed) : 0

Track 11 Filename : /Users/Thom/Desktop/Walkmen - Lisbon (2010) FLAC/11 Track 11.flac

Pre-gap length : 00:03:42

CRC32 hash (test run) : 003EEDE1 CRC32 hash : 003EEDE1 CRC32 hash (skip zero) : 2F2CA1E6 AccurateRip signature : 283DEF5F ->Track not present in AccurateRip database. Statistics Read error : 0 Skipped (treated as error) : 0 Edge jitter error (maybe fixed) : 0 Atom jitter error (maybe fixed) : 0 Drift error (maybe fixed) : 0 Dropped bytes error (maybe fixed) : 0 Duplicated bytes error (maybe fixed) : 0

No errors occurred

End of status report


Трекер:  [ 11-Май-2012 19:43 ]

  

Скачать .torrent

Размер .torrent файла 12 KB


Размер: 280 MB
Хэш (hash) релиза: cd34cd461cff74e1b77f1eecef5be072e07017e1

Еще никто не оставлял запись к записи скачать торрент The Walkmen - Lisbon - 2010 ALAC, lossless . Будь первым!

!Обратная связь