Скачать через торрент Pulp - Different Class - 1995 ALAC, lossless бесплатно русская версия torrent активатор

Если у вас наблюдаются проблемы со скриншотами, переходом по ссылками, скачиванием торрентов - проблемы в блокировщике рекламы AdBlock. #хорошегоДня!


Статистика раздачи
Размер:  353 MB   |    Зарегистрирован:  5 лет 5 месяцев   |    .torrent скачан:  42 раза   |   
Раздают:  1  
   
Загрузка...
 
Автор Сообщение

L


Pulp - Different Class <br><br> <div align="right"><var class="postImg postImgAligned img-right" title="http://farm8.staticflickr.com/7082/7170644602_bef56064b7.jpg">
</var>Год: 1995
Страна: UK
Жанр: Britpop
Продолжительность: 51:57
Тексты: вшиты
Кодек: ALAC
Программа-риповщик : foobar2000 + iTunes (lossless)
Битрейт: lossless
Треклист:
01 - Mis-Shapes
02 - Pencil Skirt
03 - Common People
04 - I Spy
05 - Disco 2000
06 - Live Bed Show
07 - Something Changed
08 - Sorted for E's & Wizz
09 - F.E.E.L.I.N.G.C.A.L.L.E.D.L.O.V.E
10 - Underwear
11 - Monday Morning
12 - Bar Italia
<a href="http://fastpic.ru/view/38/2012/0510/a80dd573c0ac1758d3d50a294a13a547.jpg.html" class="postLink"><var class="postImg" title="http://i38.fastpic.ru/thumb/2012/0510/47/a80dd573c0ac1758d3d50a294a13a547.jpeg">
</var></a>
  
Exact Audio Copy V0.99 prebeta 4 from 23. January 2008 <br><br> EAC extraction logfile from 28. May 2008, 12:14 <br><br> Pulp / Different Class <br><br> Used drive : TEAC DV-W516GB Adapter: 3 ID: 0 <br><br> Read mode : SecureUtilize accurate stream : YesDefeat audio cache : YesMake use of C2 pointers : No <br><br> Read offset correction : 12Overread into Lead-In and Lead-Out : NoFill up missing offset samples with silence : YesDelete leading and trailing silent blocks : NoNull samples used in CRC calculations : YesUsed interface : Installed external ASPI interfaceGap handling : Not detected, thus appended to previous track <br><br> Used output format : User Defined EncoderSelected bitrate : 896 kBit/sQuality : HighAdd ID3 tag : NoCommand line compressor : C:\Program Files\Exact Audio Copy\FLAC\FLAC.EXEAdditional command line options : -8 -V -T "ARTIST=%a" -T "TITLE=%t" -T "ALBUM=%g" -T "DATE=%y" -T "TRACKNUMBER=%n" -T "GENRE=%m" -T "COMMENT=%e" %s -o %d <br><br> TOC of the extracted CD <br><br> Track | Start | Length | Start sector | End sector---------------------------------------------------------1 | 0:00.00 | 3:46.42 | 0 | 169912 | 3:46.42 | 3:11.23 | 16992 | 313393 | 6:57.65 | 5:51.52 | 31340 | 577164 | 12:49.42 | 5:55.15 | 57717 | 843565 | 18:44.57 | 4:33.43 | 84357 | 1048746 | 23:18.25 | 3:29.62 | 104875 | 1206117 | 26:48.12 | 3:18.45 | 120612 | 1355068 | 30:06.57 | 3:47.63 | 135507 | 1525949 | 33:54.45 | 6:01.27 | 152595 | 17969610 | 39:55.72 | 4:06.23 | 179697 | 19816911 | 44:02.20 | 4:18.30 | 198170 | 21754912 | 48:20.50 | 3:42.25 | 217550 | 234224 <br><br> Track 1 <br><br> Filename D:\TORRENT\pulp\01 - Mis-Shapes .wav <br><br> Peak level 99.2 %Track quality 100.0 %Test CRC B8B739CFCopy CRC B8B739CFAccurately ripped (confidence 4) [2C96F196]Copy OK <br><br> Track 2 <br><br> Filename D:\TORRENT\pulp\02 - Pencil Skirt .wav <br><br> Peak level 99.2 %Track quality 100.0 %Test CRC 6360E468Copy CRC 6360E468Accurately ripped (confidence 5) [23C70335]Copy OK <br><br> Track 3 <br><br> Filename D:\TORRENT\pulp\03 - Common People .wav <br><br> Peak level 99.2 %Track quality 100.0 %Test CRC 1B598201Copy CRC 1B598201Accurately ripped (confidence 5) [D1E34019]Copy OK <br><br> Track 4 <br><br> Filename D:\TORRENT\pulp\04 - I Spy .wav <br><br> Peak level 99.2 %Track quality 100.0 %Test CRC 42403248Copy CRC 42403248Accurately ripped (confidence 5) [66E828AD]Copy OK <br><br> Track 5 <br><br> Filename D:\TORRENT\pulp\05 - Disco 2000 .wav <br><br> Peak level 99.2 %Track quality 100.0 %Test CRC F87AA4DFCopy CRC F87AA4DFAccurately ripped (confidence 5) [0FFD4D02]Copy OK <br><br> Track 6 <br><br> Filename D:\TORRENT\pulp\06 - Live Bed Show .wav <br><br> Peak level 99.2 %Track quality 99.9 %Test CRC 9A84274DCopy CRC 9A84274DAccurately ripped (confidence 5) [C888945D]Copy OK <br><br> Track 7 <br><br> Filename D:\TORRENT\pulp\07 - Something Changed .wav <br><br> Peak level 99.2 %Track quality 100.0 %Test CRC 32E2F431Copy CRC 32E2F431Accurately ripped (confidence 5) [7F76D609]Copy OK <br><br> Track 8 <br><br> Filename D:\TORRENT\pulp\08 - Sorted for E's & Wizz .wav <br><br> Peak level 99.2 %Track quality 100.0 %Test CRC 8A98E207Copy CRC 8A98E207Accurately ripped (confidence 5) [4B09BBDE]Copy OK <br><br> Track 9 <br><br> Filename D:\TORRENT\pulp\09 - F.E.E.L.I.N.G.C.A.L.L.E.D.L.O.V.E .wav <br><br> Peak level 99.2 %Track quality 100.0 %Test CRC 410F22C7Copy CRC 410F22C7Accurately ripped (confidence 4) [4114112A]Copy OK <br><br> Track 10 <br><br> Filename D:\TORRENT\pulp\10 - Underwear .wav <br><br> Peak level 99.2 %Track quality 100.0 %Test CRC 0EB3D429Copy CRC 0EB3D429Accurately ripped (confidence 5) [BE645453]Copy OK <br><br> Track 11 <br><br> Filename D:\TORRENT\pulp\11 - Monday Morning .wav <br><br> Peak level 99.2 %Track quality 100.0 %Test CRC F0C80B07Copy CRC F0C80B07Accurately ripped (confidence 5) [DA50E0C6]Copy OK <br><br> Track 12 <br><br> Filename D:\TORRENT\pulp\12 - Bar Italia .wav <br><br> Peak level 99.2 %Track quality 100.0 %Test CRC E754B100Copy CRC E754B100Accurately ripped (confidence 4) [91857909]Copy OK <br><br> All tracks accurately ripped <br><br> No errors occurred <br><br> End of status report


Трекер:  [ 11-Май-2012 19:44 ]

  

Скачать .torrent

Размер .torrent файла 15 KB


Размер: 353 MB
Хэш (hash) релиза: 0a67bd0317255452836dcb4b4c59781be8260d24

Еще никто не оставлял запись к записи скачать торрент Pulp - Different Class - 1995 ALAC, lossless . Будь первым!

!Обратная связь