Скачать через торрент Iluvatar - Дискография - 1993 - 1999 бесплатно русская версия torrent активатор

Если у вас наблюдаются проблемы со скриншотами, переходом по ссылками, скачиванием торрентов - проблемы в блокировщике рекламы AdBlock. #хорошегоДня!


Статистика раздачи
Размер:  1.16 GB   |    Зарегистрирован:  5 лет 5 месяцев   |    .torrent скачан:  42 раза   |   
Раздают:  1  
   
Загрузка...
 
Автор Сообщение

L


Iluvatar - Дискография



Год: 1993 - 1999
Страна: США
Страна-производитель диска: США
Жанр: Progressive Rock
Тип издания: оригинал
Наличие сканов в содержимом раздачи: да
Продолжительность:
Тексты: отсутствуют
Кодек: ALAC
Программа-риповщик : foobar2000 + iTunes (lossless)
Битрейт: lossless
Треклист:
01. Ilúvatar
02. In The Eye
03. Eagle
04. New Found Key
05. Exodus
06. Wait For The Call
07. Dream Visage
08. Marionette
09. Emperor's New Clothes
  
Exact Audio Copy V0.99 prebeta 4 from 23. January 2008

Отчёт EAC об извлечении, выполненном 12. февраля 2008, 23:17

Iluvatar / Iluvatar

Дисковод: TEAC CD-W516EB Adapter: 0 ID: 0

Режим чтения : ДостоверностьИспользование точного потока : ДаОтключение кэша аудио : ДаИспользование указателей C2 : Нет

Коррекция смещения при чтении : 685Способность читать области Lead-in и Lead-out : НетЗаполнение пропущенных сэмплов тишиной : ДаУдаление блоков с тишиной в начале и конце : НетПри вычислениях CRC использовались нулевые сэмплы : НетИнтерфейс : Встроенный Win32-интерфейс для Win NT/2000

Выходной формат : Внутренние WAV-операцииФормат сэмплов : 44.100 Гц; 16 бит; стерео

TOC извлечённого CD

Трек | Старт | Длительность | Начальный сектор | Конечный сектор --------------------------------------------------------------------- 1 | 0:00.50 | 2:25.45 | 50 | 10969 2 | 2:26.20 | 10:00.37 | 10970 | 56006 3 | 12:26.57 | 6:40.70 | 56007 | 86076 4 | 19:07.52 | 4:13.35 | 86077 | 105086 5 | 23:21.12 | 7:11.35 | 105087 | 137446 6 | 30:32.47 | 4:40.25 | 137447 | 158471 7 | 35:12.72 | 6:55.15 | 158472 | 189611 8 | 42:08.12 | 7:26.25 | 189612 | 223086 9 | 49:34.37 | 7:04.30 | 223087 | 254916

Характеристики диапазона извлечения и сообщения об ошибках

Выбранный диапазон

Имя файла K:\EAC\Iluvatar - Iluvatar.wav

Пиковый уровень 100.0 % Качество диапазона 100.0 % CRC копии 200396B1 Копирование... OK

Ошибок не произошло

Конец отчёта
01. Haze
02. In Our Lives
03. Given Away
04. Late Of Conscience
05. Cracker
06. Eye Next To Glass
07. Your Darkest Hour
08. The Final Stroke
  
Exact Audio Copy V0.99 prebeta 4 from 23. January 2008

Отчёт EAC об извлечении, выполненном 12. февраля 2008, 22:39

Iluvatar / Children

Дисковод: TEAC CD-W516EB Adapter: 0 ID: 0

Режим чтения : Достоверность Использование точного потока : Да Отключение кэша аудио : Да Использование указателей C2 : Нет

Коррекция смещения при чтении : 685 Способность читать области Lead-in и Lead-out : Нет Заполнение пропущенных сэмплов тишиной : Да Удаление блоков с тишиной в начале и конце : Нет При вычислениях CRC использовались нулевые сэмплы : Нет Интерфейс : Встроенный Win32-интерфейс для Win NT/2000

Выходной формат : Внутренние WAV-операции Формат сэмплов : 44.100 Гц; 16 бит; стерео

TOC извлечённого CD

Трек | Старт | Длительность | Начальный сектор | Конечный сектор --------------------------------------------------------------------- 1 | 0:00.00 | 6:43.25 | 0 | 30249 2 | 6:43.25 | 6:46.35 | 30250 | 60734 3 | 13:29.60 | 6:42.65 | 60735 | 90949 4 | 20:12.50 | 8:58.22 | 90950 | 131321 5 | 29:10.72 | 5:59.30 | 131322 | 158276 6 | 35:10.27 | 4:56.08 | 158277 | 180484 7 | 40:06.35 | 5:07.02 | 180485 | 203511 8 | 45:13.37 | 12:30.18 | 203512 | 259779

Характеристики диапазона извлечения и сообщения об ошибках

Выбранный диапазон

Имя файла K:\EAC\Iluvatar - Children.wav

Пиковый уровень 96.5 % Качество диапазона 100.0 % CRC копии 131FC006 Копирование... OK

Ошибок не произошло

Конец отчёта
01. Sojourns
02. Savant
03. Dreaming With the Lights On
04. Holidays and Miracles
05. Better Days
06. Even Angels Fall
07. Indian Rain
  
Exact Audio Copy V0.99 prebeta 4 from 23. January 2008

Отчёт EAC об извлечении, выполненном 13. февраля 2008, 7:13

Iluvatar / A Story Two Days Wide...

Дисковод: TEAC CD-W516EB Adapter: 0 ID: 0

Режим чтения : Достоверность Использование точного потока : Да Отключение кэша аудио : Да Использование указателей C2 : Нет

Коррекция смещения при чтении : 685 Способность читать области Lead-in и Lead-out : Нет Заполнение пропущенных сэмплов тишиной : Да Удаление блоков с тишиной в начале и конце : Нет При вычислениях CRC использовались нулевые сэмплы : Нет Интерфейс : Встроенный Win32-интерфейс для Win NT/2000

Выходной формат : Внутренние WAV-операции Формат сэмплов : 44.100 Гц; 16 бит; стерео

TOC извлечённого CD

Трек | Старт | Длительность | Начальный сектор | Конечный сектор --------------------------------------------------------------------- 1 | 0:00.00 | 9:04.26 | 0 | 40825 2 | 9:04.26 | 7:47.28 | 40826 | 75878 3 | 16:51.54 | 6:34.15 | 75879 | 105443 4 | 23:25.69 | 8:34.71 | 105444 | 144064 5 | 32:00.65 | 7:03.72 | 144065 | 175861 6 | 39:04.62 | 4:25.27 | 175862 | 195763 7 | 43:30.14 | 15:42.62 | 195764 | 266475

Характеристики диапазона извлечения и сообщения об ошибках

Выбранный диапазон

Имя файла K:\EAC\Iluvatar - A Story Two Days Wide....wav

Пиковый уровень 98.8 % Качество диапазона 100.0 % CRC копии 813E5623 Копирование... OK

Ошибок не произошло

Конец отчёта

  
Started at: четверг, 10. 05. 2012. - 9:52.183 files found

1 -===- F:\Music lossless\1\Iluvatar\Iluvatar - A Story Two Days Wide (1999)\Iluvatar - A Story Two Days Wide....ape Extracted successfully Conclusion: this track is CDDA with probability 100% Tempfile successfully deleted.

2 -===- F:\Music lossless\1\Iluvatar\Iluvatar - Children (1995)\Iluvatar - Children.ape Extracted successfully Conclusion: this track is CDDA with probability 100% Tempfile successfully deleted.

3 -===- F:\Music lossless\1\Iluvatar\Iluvatar - Iluvatar (1993)\Iluvatar - Iluvatar.ape Extracted successfully Conclusion: this track is CDDA with probability 100% Tempfile successfully deleted.

Finished at: четверг, 10. 05. 2012. - 10:12.16 (operation time: 0:19.57)

Сайт: Рок-энциклопедия

История группы восходит к 1983 году, когда ее будущие участники стартовали в местной прогрессив-кавер-банде "Sojourn". Многие из композиций этого коллектива (как музыка, так и тексты) на первом и втором альбоме были написаны гитаристом Томом Краусом.

После того как Краус покинул команду (позднее он оказался в "Brave new world"), в 1992 году "Sojourn" сменили вывеску на "Iluvatar". Группа принялась активно выступать "живьем" в окрестностях Балтимора и довольно быстро сколотила себе армию преданных поклонников. Хотя основной упор музыканты делали на собственные композиции, в их репертуаре также неизменно присутствовали каверы на "Marillion", "Genesis", "Styx" и "Pink Floyd". Вышедший на "Kinesis records" в ноябре 1993 года одноименный дебютный CD "Iluvatar" быстро добился самого продаваемого этим лейблом релиз.

Благодаря этой пластинке группа также получила и международное признание. В марте 1995-го команда вновь отправилась в студию готовить для "Kinesis" второй альбом. Еще до начала сессий оригинального басиста Мика Тримбла сменил Дин Моркас.

Iluvatar С помощью "Children" коллектив закрепил за собой статус одной из ведущих американских прогрессив-групп 90-х годов. Но, несмотря на успешное продвижение дел, кадровые перестановки продолжились, и после выхода диска барабанщик Гэри Чэмберс уступил свою установку Рику Флейшману, чье постукивание можно было услышать на диске 1997 года "Sideshow". Кстати этот альбом представлял собой собрание концертных записей, альтернативных версий и ранее нереализованного материала. В международное турне в поддержку "Sideshow" группа отправилась с ударником Алленом Брунеллом (впоследствии ушедшим в "The dark aether project").

Лишь в декабре 1997-го "барабанную проблему" удалось окончательно решить с приходом Криса Мака. Вместе с ним "Iluvatar" отыграли большое число концертов, появившись на мексиканском фестивале "BajaProg 98", пенсильванском "NEARfest 2000", а также в 1999-м выпустили альбом "A story two days wide".


Трекер:  [ 11-Май-2012 19:44 ]

  

Скачать .torrent

Размер .torrent файла 14 KB


Размер: 1.16 GB
Хэш (hash) релиза: df2a9956fae23721cf683ff48171487ad5941c5c

Еще никто не оставлял запись к записи скачать торрент Iluvatar - Дискография - 1993 - 1999 . Будь первым!

!Обратная связь