Скачать через торрент Keane - Strangeland бесплатно русская версия torrent активатор

Если у вас наблюдаются проблемы со скриншотами, переходом по ссылками, скачиванием торрентов - проблемы в блокировщике рекламы AdBlock. #хорошегоДня!


Статистика раздачи
Размер:  398 MB   |    Зарегистрирован:  5 лет 5 месяцев   |    .torrent скачан:  47 раз   |   
Раздают:  1  
   
Загрузка...
 
Автор Сообщение

L


Keane - Strangeland (Deluxe Edition)

Год: 2012
Страна: UK
Жанр: Pop Rock, Piano Rock
Продолжительность: 1:00:43
Тексты: вшиты
Кодек: ALAC
Программа-риповщик : foobar2000 + iTunes (lossless)
Битрейт: lossless
Треклист:
1. You Are Young (3:36)
2. Silenced by the Night (3:17)
3. Disconnected (3:58)
4. Watch How You Go (3:40)
5. Sovereign Light Cafe (3:39)
6. On the Road (3:57)
7. The Starting Line (4:12)
8. Black Rain (3:47)
9. Neon River (4:53)
10. Day Will Come (3:12)
11. In Your Own Time (3:44)
12. Sea Fog (3:26)
13. Strangeland (4:37) (Bonus Track)
14. Run With Me (3:31) (Bonus Track)
15. The Boys (3:33) (Bonus Track)
16. It's Not True (3:52) (Bonus Track)
  
X Lossless Decoder version 20120407 (140.0)

XLD extraction logfile from 2012-05-05 16:09:01 +0100

Keane / Strangeland

Used drive : MATSHITA DVD-R UJ-868 (revision KB19)

Ripper mode : XLD Secure RipperDisable audio cache : OK for the drive with a cache less than 1375KiBMake use of C2 pointers : NORead offset correction : 102Max retry count : 100Gap status : Analyzed, Appended (except HTOA)

TOC of the extracted CD Track | Start | Length | Start sector | End sector --------------------------------------------------------- 1 | 00:00:00 | 03:35:37 | 0 | 16161 2 | 03:35:37 | 03:16:35 | 16162 | 30896 3 | 06:51:72 | 03:57:67 | 30897 | 48738 4 | 10:49:64 | 03:40:29 | 48739 | 65267 5 | 14:30:18 | 03:38:63 | 65268 | 81680 6 | 18:09:06 | 03:56:55 | 81681 | 99435 7 | 22:05:61 | 04:12:25 | 99436 | 118360 8 | 26:18:11 | 03:46:42 | 118361 | 135352 9 | 30:04:53 | 04:52:71 | 135353 | 157323 10 | 34:57:49 | 03:11:68 | 157324 | 171716 11 | 38:09:42 | 03:43:60 | 171717 | 188501 12 | 41:53:27 | 03:27:07 | 188502 | 204033 13 | 45:20:34 | 04:36:38 | 204034 | 224771 14 | 49:56:72 | 03:30:57 | 224772 | 240578 15 | 53:27:54 | 03:33:25 | 240579 | 256578 16 | 57:01:04 | 03:51:65 | 256579 | 273968

AccurateRip Summary Disc not found in AccurateRip DB.

All Tracks Album gain : -8.75 dB Peak : 0.995483 Statistics Read error : 0 Jitter error (maybe fixed) : 0 Retry sector count : 0 Damaged sector count : 0

Track 01 Filename : /Users/EPAF/Music/Keane - Strangeland (2012) [FLAC]/01 You Are Young.flac Pre-gap length : 00:02:00

Track gain : -8.12 dB Peak : 0.989319 CRC32 hash (test run) : FBB3824E CRC32 hash : FBB3824E CRC32 hash (skip zero) : EA8E9351 AccurateRip signature : 1496F1D3 ->Track not present in AccurateRip database. Statistics Read error : 0 Jitter error (maybe fixed) : 0 Retry sector count : 0 Damaged sector count : 0

Track 02 Filename : /Users/EPAF/Music/Keane - Strangeland (2012) [FLAC]/02 Silenced By The Night.flac

Track gain : -9.15 dB Peak : 0.995483 CRC32 hash (test run) : AAA7693C CRC32 hash : AAA7693C CRC32 hash (skip zero) : C394B163 AccurateRip signature : CCCCA1E1 ->Track not present in AccurateRip database. Statistics Read error : 0 Jitter error (maybe fixed) : 0 Retry sector count : 0 Damaged sector count : 0

Track 03 Filename : /Users/EPAF/Music/Keane - Strangeland (2012) [FLAC]/03 Disconnected.flac

Track gain : -8.98 dB Peak : 0.990875 CRC32 hash (test run) : B471152C CRC32 hash : B471152C CRC32 hash (skip zero) : 1D885C58 AccurateRip signature : 81D0D1E0 ->Track not present in AccurateRip database. Statistics Read error : 0 Jitter error (maybe fixed) : 0 Retry sector count : 0 Damaged sector count : 0

Track 04 Filename : /Users/EPAF/Music/Keane - Strangeland (2012) [FLAC]/04 Watch How You Go.flac

Track gain : -7.64 dB Peak : 0.989075 CRC32 hash (test run) : 730E694D CRC32 hash : 730E694D CRC32 hash (skip zero) : 0E68DC6D AccurateRip signature : CD3D02F7 ->Track not present in AccurateRip database. Statistics Read error : 0 Jitter error (maybe fixed) : 0 Retry sector count : 0 Damaged sector count : 0

Track 05 Filename : /Users/EPAF/Music/Keane - Strangeland (2012) [FLAC]/05 Sovereign Light Café.flac

Track gain : -8.31 dB Peak : 0.991516 CRC32 hash (test run) : 084C57F2 CRC32 hash : 084C57F2 CRC32 hash (skip zero) : E973E729 AccurateRip signature : 1F0FE7AB ->Track not present in AccurateRip database. Statistics Read error : 0 Jitter error (maybe fixed) : 0 Retry sector count : 0 Damaged sector count : 0

Track 06 Filename : /Users/EPAF/Music/Keane - Strangeland (2012) [FLAC]/06 On The Road.flac Pre-gap length : 00:01:30

Track gain : -8.80 dB Peak : 0.989655 CRC32 hash (test run) : E25040DD CRC32 hash : E25040DD CRC32 hash (skip zero) : BAA0F765 AccurateRip signature : BE638D70 ->Track not present in AccurateRip database. Statistics Read error : 0 Jitter error (maybe fixed) : 0 Retry sector count : 0 Damaged sector count : 0

Track 07 Filename : /Users/EPAF/Music/Keane - Strangeland (2012) [FLAC]/07 The Starting Line.flac Pre-gap length : 00:02:51

Track gain : -9.21 dB Peak : 0.989044 CRC32 hash (test run) : A04163C5 CRC32 hash : A04163C5 CRC32 hash (skip zero) : 3D5E0318 AccurateRip signature : 6FCF411B ->Track not present in AccurateRip database. Statistics Read error : 0 Jitter error (maybe fixed) : 0 Retry sector count : 0 Damaged sector count : 0

Track 08 Filename : /Users/EPAF/Music/Keane - Strangeland (2012) [FLAC]/08 Black Rain.flac

Track gain : -7.50 dB Peak : 0.988770 CRC32 hash (test run) : 77C48177 CRC32 hash : 77C48177 CRC32 hash (skip zero) : 65D05442 AccurateRip signature : 159957F1 ->Track not present in AccurateRip database. Statistics Read error : 0 Jitter error (maybe fixed) : 0 Retry sector count : 0 Damaged sector count : 0

Track 09 Filename : /Users/EPAF/Music/Keane - Strangeland (2012) [FLAC]/09 Neon River.flac Pre-gap length : 00:00:62

Track gain : -8.28 dB Peak : 0.989136 CRC32 hash (test run) : C87D9E30 CRC32 hash : C87D9E30 CRC32 hash (skip zero) : DCFCCD07 AccurateRip signature : 0136C58C ->Track not present in AccurateRip database. Statistics Read error : 0 Jitter error (maybe fixed) : 0 Retry sector count : 0 Damaged sector count : 0

Track 10 Filename : /Users/EPAF/Music/Keane - Strangeland (2012) [FLAC]/10 Day Will Come.flac Pre-gap length : 00:01:30

Track gain : -9.11 dB Peak : 0.989868 CRC32 hash (test run) : 9D1823FD CRC32 hash : 9D1823FD CRC32 hash (skip zero) : 47F0E8BE AccurateRip signature : 8A957C02 ->Track not present in AccurateRip database. Statistics Read error : 0 Jitter error (maybe fixed) : 0 Retry sector count : 0 Damaged sector count : 0

Track 11 Filename : /Users/EPAF/Music/Keane - Strangeland (2012) [FLAC]/11 In Your Own Time.flac Pre-gap length : 00:01:20

Track gain : -9.18 dB Peak : 0.988861 CRC32 hash (test run) : CB828D09 CRC32 hash : CB828D09 CRC32 hash (skip zero) : 3C461540 AccurateRip signature : 6FBF2F34 ->Track not present in AccurateRip database. Statistics Read error : 0 Jitter error (maybe fixed) : 0 Retry sector count : 0 Damaged sector count : 0

Track 12 Filename : /Users/EPAF/Music/Keane - Strangeland (2012) [FLAC]/12 Sea Fog.flac

Track gain : -7.04 dB Peak : 0.988708 CRC32 hash (test run) : 17F9702C CRC32 hash : 17F9702C CRC32 hash (skip zero) : D915AC56 AccurateRip signature : B3211A6D ->Track not present in AccurateRip database. Statistics Read error : 0 Jitter error (maybe fixed) : 0 Retry sector count : 0 Damaged sector count : 0

Track 13 Filename : /Users/EPAF/Music/Keane - Strangeland (2012) [FLAC]/13 Strangeland.flac Pre-gap length : 00:03:34

Track gain : -7.31 dB Peak : 0.989227 CRC32 hash (test run) : A572A0BB CRC32 hash : A572A0BB CRC32 hash (skip zero) : 949446FE AccurateRip signature : B8ED5472 ->Track not present in AccurateRip database. Statistics Read error : 0 Jitter error (maybe fixed) : 0 Retry sector count : 0 Damaged sector count : 0

Track 14 Filename : /Users/EPAF/Music/Keane - Strangeland (2012) [FLAC]/14 Run With Me.flac Pre-gap length : 00:01:20

Track gain : -9.21 dB Peak : 0.992523 CRC32 hash (test run) : D54D5348 CRC32 hash : D54D5348 CRC32 hash (skip zero) : DB125815 AccurateRip signature : 6E2800AF ->Track not present in AccurateRip database. Statistics Read error : 0 Jitter error (maybe fixed) : 0 Retry sector count : 0 Damaged sector count : 0

Track 15 Filename : /Users/EPAF/Music/Keane - Strangeland (2012) [FLAC]/15 The Boys.flac Pre-gap length : 00:00:61

Track gain : -8.66 dB Peak : 0.989777 CRC32 hash (test run) : CE211E93 CRC32 hash : CE211E93 CRC32 hash (skip zero) : 07F6F73D AccurateRip signature : 9F3493A1 ->Track not present in AccurateRip database. Statistics Read error : 0 Jitter error (maybe fixed) : 0 Retry sector count : 0 Damaged sector count : 0

Track 16 Filename : /Users/EPAF/Music/Keane - Strangeland (2012) [FLAC]/16 It's Not True.flac Pre-gap length : 00:02:16

Track gain : -8.65 dB Peak : 0.988800 CRC32 hash (test run) : 2BB222D2 CRC32 hash : 2BB222D2 CRC32 hash (skip zero) : 573B53F6 AccurateRip signature : DD6F595D ->Track not present in AccurateRip database. Statistics Read error : 0 Jitter error (maybe fixed) : 0 Retry sector count : 0 Damaged sector count : 0

No errors occurred

End of status report


Трекер:  [ 11-Май-2012 19:44 ]

  

Скачать .torrent

Размер .torrent файла 16 KB


Размер: 398 MB
Хэш (hash) релиза: 1e0aa09c77665e224c88ab7cc2a1bf503e85a6d9

Торренты, похожие на Keane - Strangeland скачать торрент

Форум Название Автор Размер S L Добавлен
Apple Mobile Device Software ·· (Alternative) Keane - Strangeland (Deluxe Version) (Tim Rice-Oxley, Tom Chaplin, Richard Hughes, etc.) - 2012, AAC (tracks) [WEB], 256 kbps [+Video, WEB-DL, 480p] L 443918248423 MB 0 0 1336482540

16:09

8-Май-12

Apple Mobile Device Software ·· (Pop Rock) Keane - Strangeland - 2012 (US Edition - Cherrytree Records) ALAC (tracks + .CUE), lossless Galfimbul 322597253308 MB 0 0 1336365360

07:36

7-Май-12

Еще никто не оставлял запись к записи скачать торрент Keane - Strangeland . Будь первым!

!Обратная связь