Скачать через торрент Diane and David Arkenstone - Music Inspired By Middle Earth - 2001 бесплатно русская версия torrent активатор

Если у вас наблюдаются проблемы со скриншотами, переходом по ссылками, скачиванием торрентов - проблемы в блокировщике рекламы AdBlock. #хорошегоДня!


Статистика раздачи
Размер:  307 MB   |    Зарегистрирован:  5 лет 5 месяцев   |    .torrent скачан:  57 раз   |   
Раздают:  1  
   
Загрузка...
 
Автор Сообщение

L


Diane and David Arkenstone - Music Inspired By Middle Earth

Год: 2001
Страна: США
Страна-производитель диска: США
Жанр: New Age/Tolkien
Тип издания: оригинал
Издатель (лейбл): Neo Pacifica
Наличие сканов в содержимом раздачи: да
Продолжительность: 00:55:52
Тексты: не требуются
Кодек: ALAC
Программа-риповщик : foobar2000 + iTunes (lossless)
Битрейт: lossless
Треклист:
01. Prelude: Hobbits from the Shire
02. The Road to Rivendell
03. The Quest
04. Moria
05. Lothlórien
06. Galadriel's Mirror
07. The Riders of Rohan
08. The Palantír
09. Arwen and Aragorn
10. To Isengard
11. In the Land of Shadow
12. The Field of Cormallen
13. The Grey Havens
  
X Lossless Decoder version 20080926 (93.3)

XLD extraction logfile from 2009-01-18 02:34:36 -0600

David Arkenstone / Music Inspired By Middle Earth

Used drive : PIONEER DVD-RW DVR-112D (revision 1.21)

Use cdparanoia mode : YES (CDParanoia III 9.8 engine)Disable audio cache : OK for the drive with cache less than 370KBMake use of C2 pointers : NORead offset correction : 48Max retry count : 100

TOC of the extracted CD Track | Start | Length | Start sector | End sector --------------------------------------------------------- 1 | 00:00:00 | 04:08:00 | 0 | 18599 2 | 04:08:00 | 03:39:25 | 18600 | 35049 3 | 07:47:25 | 05:28:70 | 35050 | 59719 4 | 13:16:20 | 05:02:20 | 59720 | 82389 5 | 18:18:40 | 04:19:12 | 82390 | 101826 6 | 22:37:52 | 04:32:70 | 101827 | 122296 7 | 27:10:47 | 04:24:18 | 122297 | 142114 8 | 31:34:65 | 04:50:30 | 142115 | 163894 9 | 36:25:20 | 03:29:13 | 163895 | 179582 10 | 39:54:33 | 04:25:22 | 179583 | 199479 11 | 44:19:55 | 04:22:20 | 199480 | 219149 12 | 48:42:00 | 03:33:05 | 219150 | 235129 13 | 52:15:05 | 03:37:61 | 235130 | 251465

Track 01 Filename : /Volumes/Romulus/Filesharing/New Rips/01 - Preludeпјљ Hobbits From The Shire.flac /Volumes/Romulus/Filesharing/New Rips/01 - Preludeпјљ Hobbits From The Shire.mp3 CRC32 hash (test run) : AC178C17 CRC32 hash : AC178C17 CRC32 hash (skip zero) : E0691710 AccurateRip signature : 97635B9B ->Accurately ripped! (confidence 2) Statistics Read error : 0 Skipped (treated as error) : 0 Edge jitter error (maybe fixed) : 0 Atom jitter error (maybe fixed) : 0 Drift error (maybe fixed) : 0 Dropped bytes error (maybe fixed) : 0 Duplicated bytes error (maybe fixed) : 0 Inconsistency in error sectors : 0

Track 02 Filename : /Volumes/Romulus/Filesharing/New Rips/02 - The Road To Rivendell.flac /Volumes/Romulus/Filesharing/New Rips/02 - The Road To Rivendell.mp3 CRC32 hash (test run) : 030F8BCB CRC32 hash : 030F8BCB CRC32 hash (skip zero) : 9FE164F3 AccurateRip signature : CA2FA69F ->Accurately ripped! (confidence 2) Statistics Read error : 0 Skipped (treated as error) : 0 Edge jitter error (maybe fixed) : 0 Atom jitter error (maybe fixed) : 0 Drift error (maybe fixed) : 0 Dropped bytes error (maybe fixed) : 0 Duplicated bytes error (maybe fixed) : 0 Inconsistency in error sectors : 0

Track 03 Filename : /Volumes/Romulus/Filesharing/New Rips/03 - The Quest.flac /Volumes/Romulus/Filesharing/New Rips/03 - The Quest.mp3 CRC32 hash (test run) : 2D28B54E CRC32 hash : 2D28B54E CRC32 hash (skip zero) : 635E2469 AccurateRip signature : D95F7951 ->Accurately ripped! (confidence 2) Statistics Read error : 0 Skipped (treated as error) : 0 Edge jitter error (maybe fixed) : 0 Atom jitter error (maybe fixed) : 0 Drift error (maybe fixed) : 0 Dropped bytes error (maybe fixed) : 0 Duplicated bytes error (maybe fixed) : 0 Inconsistency in error sectors : 0

Track 04 Filename : /Volumes/Romulus/Filesharing/New Rips/04 - Moria.flac /Volumes/Romulus/Filesharing/New Rips/04 - Moria.mp3 CRC32 hash (test run) : 0E49BD1D CRC32 hash : 0E49BD1D CRC32 hash (skip zero) : F6B6FA62 AccurateRip signature : 6DC00EC4 ->Accurately ripped! (confidence 2) Statistics Read error : 0 Skipped (treated as error) : 0 Edge jitter error (maybe fixed) : 0 Atom jitter error (maybe fixed) : 2 Drift error (maybe fixed) : 0 Dropped bytes error (maybe fixed) : 0 Duplicated bytes error (maybe fixed) : 0 Inconsistency in error sectors : 0

Track 05 Filename : /Volumes/Romulus/Filesharing/New Rips/05 - LothlГіrien.flac /Volumes/Romulus/Filesharing/New Rips/05 - LothlГіrien.mp3 CRC32 hash (test run) : 83B14096 CRC32 hash : 83B14096 CRC32 hash (skip zero) : FF2CDB45 AccurateRip signature : 8C4E41C6 ->Accurately ripped! (confidence 2) Statistics Read error : 0 Skipped (treated as error) : 0 Edge jitter error (maybe fixed) : 0 Atom jitter error (maybe fixed) : 0 Drift error (maybe fixed) : 0 Dropped bytes error (maybe fixed) : 0 Duplicated bytes error (maybe fixed) : 0 Inconsistency in error sectors : 0

Track 06 Filename : /Volumes/Romulus/Filesharing/New Rips/06 - Galadriel's Mirror.flac /Volumes/Romulus/Filesharing/New Rips/06 - Galadriel's Mirror.mp3 CRC32 hash (test run) : 5D9D467A CRC32 hash : 5D9D467A CRC32 hash (skip zero) : E22D1A72 AccurateRip signature : 587FCFF7 ->Accurately ripped! (confidence 2) Statistics Read error : 0 Skipped (treated as error) : 0 Edge jitter error (maybe fixed) : 0 Atom jitter error (maybe fixed) : 1 Drift error (maybe fixed) : 0 Dropped bytes error (maybe fixed) : 0 Duplicated bytes error (maybe fixed) : 0 Inconsistency in error sectors : 0

Track 07 Filename : /Volumes/Romulus/Filesharing/New Rips/07 - The Riders Of Rohan.flac /Volumes/Romulus/Filesharing/New Rips/07 - The Riders Of Rohan.mp3 CRC32 hash (test run) : AF6466AF CRC32 hash : AF6466AF CRC32 hash (skip zero) : BD8865F5 AccurateRip signature : 15614FF2 ->Accurately ripped! (confidence 2) Statistics Read error : 0 Skipped (treated as error) : 0 Edge jitter error (maybe fixed) : 0 Atom jitter error (maybe fixed) : 0 Drift error (maybe fixed) : 0 Dropped bytes error (maybe fixed) : 0 Duplicated bytes error (maybe fixed) : 0 Inconsistency in error sectors : 0

Track 08 Filename : /Volumes/Romulus/Filesharing/New Rips/08 - The Palantir.flac /Volumes/Romulus/Filesharing/New Rips/08 - The Palantir.mp3 CRC32 hash (test run) : 5F952CC2 CRC32 hash : 5F952CC2 CRC32 hash (skip zero) : 77655892 AccurateRip signature : FC5DB4EA ->Accurately ripped! (confidence 2) Statistics Read error : 0 Skipped (treated as error) : 0 Edge jitter error (maybe fixed) : 0 Atom jitter error (maybe fixed) : 1 Drift error (maybe fixed) : 0 Dropped bytes error (maybe fixed) : 0 Duplicated bytes error (maybe fixed) : 0 Inconsistency in error sectors : 0

Track 09 Filename : /Volumes/Romulus/Filesharing/New Rips/09 - Arwen And Aragorn.flac /Volumes/Romulus/Filesharing/New Rips/09 - Arwen And Aragorn.mp3 CRC32 hash (test run) : 78207AF0 CRC32 hash : 78207AF0 CRC32 hash (skip zero) : A7849D12 AccurateRip signature : C32B4C4E ->Accurately ripped! (confidence 2) Statistics Read error : 0 Skipped (treated as error) : 0 Edge jitter error (maybe fixed) : 0 Atom jitter error (maybe fixed) : 0 Drift error (maybe fixed) : 0 Dropped bytes error (maybe fixed) : 0 Duplicated bytes error (maybe fixed) : 0 Inconsistency in error sectors : 0

Track 10 Filename : /Volumes/Romulus/Filesharing/New Rips/10 - To Isengard.flac /Volumes/Romulus/Filesharing/New Rips/10 - To Isengard.mp3 CRC32 hash (test run) : 3F679E65 CRC32 hash : 3F679E65 CRC32 hash (skip zero) : 7101D3F0 AccurateRip signature : B4A1DA81 ->Accurately ripped! (confidence 2) Statistics Read error : 0 Skipped (treated as error) : 0 Edge jitter error (maybe fixed) : 0 Atom jitter error (maybe fixed) : 0 Drift error (maybe fixed) : 0 Dropped bytes error (maybe fixed) : 0 Duplicated bytes error (maybe fixed) : 0 Inconsistency in error sectors : 0

Track 11 Filename : /Volumes/Romulus/Filesharing/New Rips/11 - In The Land Of Shadow.flac /Volumes/Romulus/Filesharing/New Rips/11 - In The Land Of Shadow.mp3 CRC32 hash (test run) : D04F25A2 CRC32 hash : D04F25A2 CRC32 hash (skip zero) : 20D904DB AccurateRip signature : 9F8B8962 ->Accurately ripped! (confidence 2) Statistics Read error : 0 Skipped (treated as error) : 0 Edge jitter error (maybe fixed) : 0 Atom jitter error (maybe fixed) : 0 Drift error (maybe fixed) : 0 Dropped bytes error (maybe fixed) : 0 Duplicated bytes error (maybe fixed) : 0 Inconsistency in error sectors : 0

Track 12 Filename : /Volumes/Romulus/Filesharing/New Rips/12 - The Field Of Cormallen.flac /Volumes/Romulus/Filesharing/New Rips/12 - The Field Of Cormallen.mp3 CRC32 hash (test run) : 74996879 CRC32 hash : 74996879 CRC32 hash (skip zero) : E98E4E0F AccurateRip signature : BBC53A95 ->Accurately ripped! (confidence 2) Statistics Read error : 0 Skipped (treated as error) : 0 Edge jitter error (maybe fixed) : 0 Atom jitter error (maybe fixed) : 0 Drift error (maybe fixed) : 0 Dropped bytes error (maybe fixed) : 0 Duplicated bytes error (maybe fixed) : 0 Inconsistency in error sectors : 0

Track 13 Filename : /Volumes/Romulus/Filesharing/New Rips/13 - The Grey Havens.flac /Volumes/Romulus/Filesharing/New Rips/13 - The Grey Havens.mp3 CRC32 hash (test run) : D8E00A11 CRC32 hash : D8E00A11 CRC32 hash (skip zero) : 934B7E35 AccurateRip signature : 755B1573 ->Accurately ripped! (confidence 2) Statistics Read error : 0 Skipped (treated as error) : 0 Edge jitter error (maybe fixed) : 0 Atom jitter error (maybe fixed) : 0 Drift error (maybe fixed) : 0 Dropped bytes error (maybe fixed) : 0 Duplicated bytes error (maybe fixed) : 0 Inconsistency in error sectors : 0

No errors occurred

End of status report
  
Started at: среда, 09. 05. 2012. - 22:06.4913 files found

01 -===- F:\Music lossless\1\David Arkenstone - Music Inspired By Middle Earth (2001)\01 - Prelude: Hobbits From The Shire.flac Extracted successfully Conclusion: this track is CDDA with probability 99% Tempfile successfully deleted.

02 -===- F:\Music lossless\1\David Arkenstone - Music Inspired By Middle Earth (2001)\02 - The Road To Rivendell.flac Extracted successfully Conclusion: this track is CDDA with probability 100% Tempfile successfully deleted.

03 -===- F:\Music lossless\1\David Arkenstone - Music Inspired By Middle Earth (2001)\03 - The Quest.flac Extracted successfully Conclusion: this track is CDDA with probability 100% Tempfile successfully deleted.

04 -===- F:\Music lossless\1\David Arkenstone - Music Inspired By Middle Earth (2001)\04 - Moria.flac Extracted successfully Conclusion: this track is CDDA with probability 99% Tempfile successfully deleted.

05 -===- F:\Music lossless\1\David Arkenstone - Music Inspired By Middle Earth (2001)\05 - Lothlorien.flac Extracted successfully Conclusion: this track is CDDA with probability 99% Tempfile successfully deleted.

06 -===- F:\Music lossless\1\David Arkenstone - Music Inspired By Middle Earth (2001)\06 - Galadriel's Mirror.flac Extracted successfully Conclusion: this track is CDDA with probability 100% Tempfile successfully deleted.

07 -===- F:\Music lossless\1\David Arkenstone - Music Inspired By Middle Earth (2001)\07 - The Riders Of Rohan.flac Extracted successfully Conclusion: this track is CDDA with probability 100% Tempfile successfully deleted.

08 -===- F:\Music lossless\1\David Arkenstone - Music Inspired By Middle Earth (2001)\08 - The Palantir.flac Extracted successfully Conclusion: this track is CDDA with probability 100% Tempfile successfully deleted.

09 -===- F:\Music lossless\1\David Arkenstone - Music Inspired By Middle Earth (2001)\09 - Arwen And Aragorn.flac Extracted successfully Conclusion: this track is CDDA with probability 100% Tempfile successfully deleted.

10 -===- F:\Music lossless\1\David Arkenstone - Music Inspired By Middle Earth (2001)\10 - To Isengard.flac Extracted successfully Conclusion: this track is CDDA with probability 100% Tempfile successfully deleted.

11 -===- F:\Music lossless\1\David Arkenstone - Music Inspired By Middle Earth (2001)\11 - In The Land Of Shadow.flac Extracted successfully Conclusion: this track is CDDA with probability 100% Tempfile successfully deleted.

12 -===- F:\Music lossless\1\David Arkenstone - Music Inspired By Middle Earth (2001)\12 - The Field Of Cormallen.flac Extracted successfully Conclusion: this track is CDDA with probability 100% Tempfile successfully deleted.

13 -===- F:\Music lossless\1\David Arkenstone - Music Inspired By Middle Earth (2001)\13 - The Grey Havens.flac Extracted successfully Conclusion: this track is CDDA with probability 100% Tempfile successfully deleted.

Finished at: среда, 09. 05. 2012. - 22:10.38 (operation time: 0:03.49)


Трекер:  [ 11-Май-2012 19:44 ]

  

Скачать .torrent

Размер .torrent файла 13 KB


Размер: 307 MB
Хэш (hash) релиза: 3b2ca50ec59fb8b62c892d0aff2bbe8b830cc692

Еще никто не оставлял запись к записи скачать торрент Diane and David Arkenstone - Music Inspired By Middle Earth - 2001 . Будь первым!

!Обратная связь