Скачать через торрент VA - Арэлі. Сяргей Панізьнік у вершах і песнях - 2011 бесплатно русская версия torrent активатор

Если у вас наблюдаются проблемы со скриншотами, переходом по ссылками, скачиванием торрентов - проблемы в блокировщике рекламы AdBlock. #хорошегоДня!


Статистика раздачи
Размер:  568 MB   |    Зарегистрирован:  5 лет 5 месяцев   |    .torrent скачан:  22 раза   |   
Раздают:  1  
   
Загрузка...
 
Автор Сообщение

L


VA - Арэлі. Сяргей Панізьнік у вершах і песнях

Год: 2011
Страна: Беларусь
Страна-производитель диска: Беларусь
Жанр: Авторская песня
Тип издания: сборник
Издатель (лейбл): ВИГМА
Номер по каталогу: 3510-2
Наличие сканов в содержимом раздачи: да
Продолжительность: 00:58:56
Тексты: отсутствуют
Кодек: ALAC
Программа-риповщик : foobar2000 + iTunes (lossless)
Битрейт: lossless
Треклист:
01. Уладзімір Рагаўцоў - Чуйны дзень любоўю лечыць...
02. Д. Рагоўскі, А. Рагоўскі, А. Рудзёнак - Вясельны марш для маладых
03. Ганна Панізьнік - Дзе й дзе быў салавей...
04. Уладзімір Рагаўцоў - Перакідны каляндар
05. Ганна Радзько - Пад зоркаю
06. Уладзімір Рагаўцоў - Хадзіла сонца па зямлі
07. Ганна Крупская - Споведзь
08. Уладзімір Рагаўцоў - Адмераная Мёрыцай...
09. Анатоль Ярмоленка і асн. 'Сябры' - Беларусь сінявокая
10. Уладзімір Рагаўцоў - Радаводнае дрэва
11. Анс. 'Сябры' - Аэліта
12. Уладзімір Рагаўцоў - Спас
13. Наталля Бярнадская - Белыя сняжынкі
14. Уладзімір Рагаўцоў - Святло лучнасці
15. Якаў Навуменка - Дом дружбы
16. Уладзімір Рагаўцоў - Патомнае
17. Уладзімір Палупанаў - Сцяжына
18. Уладзімір Рагаўцоў - Укленчанае маўчанне
19. Мікола Яцкоў - Сцяг
20. Мікола Яцкоў - З Купалам у сэрцы
21. Мікола Яцкоў - Світальная зорка (Максіму Багдановічу)
22. Мікола Яцкоў - Панна Ганна
23. Уладзімір Рагаўцоў - Падару табе арэлі...
24. Раіса Клімуш - Беларусь - крыніца песні
25. Раіса Клімуш - Радаводны бераг
26. Уладзімір Рагаўцоў - Палетак памяці
27. Інструментальная капэла з в. Ліпава - Полька 'на лён'
  
Exact Audio Copy V0.99 prebeta 5 from 4. May 2009

Отчёт EAC об извлечении, выполненном 19. января 2012, 13:20

Various / Арэлі. Сяргей Панізьнік у вершах і песнях

Дисковод: _NEC DVD_RW ND-3550A Adapter: 0 ID: 0

Режим чтения : ДостоверностьИспользование точного потока : ДаОтключение кэша аудио : ДаИспользование указателей C2 : Нет

Коррекция смещения при чтении : 48Способность читать области Lead-in и Lead-out : НетЗаполнение пропущенных сэмплов тишиной : ДаУдаление блоков с тишиной в начале и конце : НетПри вычислениях CRC использовались нулевые сэмплы : ДаИнтерфейс : Установленный внешний ASPI-интерфейс

Выходной формат : Внутренние WAV-операцииФормат сэмплов : 44.100 Гц; 16 бит; стерео

TOC извлечённого CD

Трек | Старт | Длительность | Начальный сектор | Конечный сектор --------------------------------------------------------------------- 1 | 0:00.00 | 1:00.04 | 0 | 4503 2 | 1:00.04 | 1:40.67 | 4504 | 12070 3 | 2:40.71 | 2:28.37 | 12071 | 23207 4 | 5:09.33 | 1:02.03 | 23208 | 27860 5 | 6:11.36 | 2:18.02 | 27861 | 38212 6 | 8:29.38 | 1:20.66 | 38213 | 44278 7 | 9:50.29 | 3:59.42 | 44279 | 62245 8 | 13:49.71 | 0:55.65 | 62246 | 66435 9 | 14:45.61 | 3:22.57 | 66436 | 81642 10 | 18:08.43 | 1:21.09 | 81643 | 87726 11 | 19:29.52 | 3:55.67 | 87727 | 105418 12 | 23:25.44 | 1:10.22 | 105419 | 110690 13 | 24:35.66 | 4:22.22 | 110691 | 130362 14 | 28:58.13 | 1:00.69 | 130363 | 134931 15 | 29:59.07 | 3:25.29 | 134932 | 150335 16 | 33:24.36 | 0:51.60 | 150336 | 154220 17 | 34:16.21 | 1:58.66 | 154221 | 163136 18 | 36:15.12 | 1:01.19 | 163137 | 167730 19 | 37:16.31 | 2:25.03 | 167731 | 178608 20 | 39:41.34 | 3:35.18 | 178609 | 194751 21 | 43:16.52 | 2:45.31 | 194752 | 207157 22 | 46:02.08 | 2:07.30 | 207158 | 216712 23 | 48:09.38 | 1:20.61 | 216713 | 222773 24 | 49:30.24 | 3:24.72 | 222774 | 238145 25 | 52:55.21 | 2:31.41 | 238146 | 249511 26 | 55:26.62 | 1:21.21 | 249512 | 255607 27 | 56:48.08 | 2:08.05 | 255608 | 265212

Характеристики диапазона извлечения и сообщения об ошибках

Выбранный диапазон

Имя файла F:\Music lossless\Various - Арэлі. Сяргей Панізьнік у вершах і песнях.wav

Пиковый уровень 97.2 % Качество диапазона 99.9 % CRC теста D79CBFDE CRC копии D79CBFDE Копирование... OK

Ошибок не произошло

AccurateRip: сводка

Трек 1 нет в базе данныхТрек 2 нет в базе данныхТрек 3 нет в базе данныхТрек 4 нет в базе данныхТрек 5 нет в базе данныхТрек 6 нет в базе данныхТрек 7 нет в базе данныхТрек 8 нет в базе данныхТрек 9 нет в базе данныхТрек 10 нет в базе данныхТрек 11 нет в базе данныхТрек 12 нет в базе данныхТрек 13 нет в базе данныхТрек 14 нет в базе данныхТрек 15 нет в базе данныхТрек 16 нет в базе данныхТрек 17 нет в базе данныхТрек 18 нет в базе данныхТрек 19 нет в базе данныхТрек 20 нет в базе данныхТрек 21 нет в базе данныхТрек 22 нет в базе данныхТрек 23 нет в базе данныхТрек 24 нет в базе данныхТрек 25 нет в базе данныхТрек 26 нет в базе данныхТрек 27 нет в базе данных

Ни одного трека нет в базе AccurateRip

Конец отчёта
  
Started at: среда, 09. 05. 2012. - 9:33.341 file found

1 -===- F:\Music lossless\Арэлі. Сяргей Панізьнік у вершах і песнях lossless\Various - Арэлі. Сяргей Панізьнік у вершах і песнях.flac Extracted successfully Conclusion: this track is CDDA with probability 86% Tempfile successfully deleted.

Finished at: среда, 09. 05. 2012. - 9:37.38 (operation time: 0:04.03)



Трекер:  [ 09-Май-2012 20:57 ]

  

Скачать .torrent

Размер .torrent файла 13 KB


Размер: 568 MB
Хэш (hash) релиза: 6ac9c3a4c1ad7619d3e65bfd731ca3a0ccf6d74e

Еще никто не оставлял запись к записи скачать торрент VA - Арэлі. Сяргей Панізьнік у вершах і песнях - 2011 . Будь первым!

!Обратная связь