Скачать через торрент Tiësto - Club Life: Volume Two Miami - 2012 бесплатно русская версия torrent активатор

Если у вас наблюдаются проблемы со скриншотами, переходом по ссылками, скачиванием торрентов - проблемы в блокировщике рекламы AdBlock. #хорошегоДня!


Статистика раздачи
Размер:  571 MB   |    Зарегистрирован:  5 лет 5 месяцев   |    .torrent скачан:  78 раз   |   
Раздают:  1  
   
Загрузка...
 
Автор Сообщение

L


Tiësto - Club Life: Volume Two Miami

Год: 2012
Страна: USA
Страна-производитель диска: Russia
Жанр: Trance
Тип издания: сборник
Издатель (лейбл): PIAS Recordings
Номер по каталогу: MFC004CD
Наличие сканов в содержимом раздачи: нет
Продолжительность: 1:14:27
Тексты: не требуются
Кодек: ALAC
Программа-риповщик : CD -> EAC -> iTunes 10.6.1.7+DaemonTools
Битрейт: lossless
Доп. информация: обложка 600х600 вшита
Источник: лицензионный CD
http://www.clublifemiami.com/
Треклист:
1 Tiësto - Miami (Original Mix)
2 Tiësto - Chasing Summers (Original Mix)
3 Tiësto & Wolfgang Gartner - We Own The Night ft. Luciana (Original Mix)
4 Tiësto - What Can We Do (A Deeper Love) (Third Party Remix)
5 Baggi Begovic ft. Josie Cotton - If A Lie Was Love (Baggi Begovic KNAL mix)
6 Gotye ft. Kimbra - Somebody I Used To Know (Tiësto Remix)
7 Coldplay - Paradise (Tiësto Remix)
8 Sultan + Ned Shepard ft. Quilla - Walls (Original Mix)
9 The Naked & Famous - Young Blood (Tiësto & Hardwell Remix)
10 John Dahlbäck - Life (Original Mix)
11 John De Sohn ft. Andreas Moe - Long Time (Original Mix)
12 Ivan Gough & Feenixpawl ft. Georgi Kay - In My Mind (Axwell Mix)
13 Avesta - Arena (Original Mix)
14 Afrojack & Shermanology - Can't Stop Me (Tiësto Remix)
15 Tiësto & Swanky Tunes - Make Some Noise ft. Ben McInerney of New Navy (Original Mix)
16 Tiësto - Maximal Crazy (Original Mix)
  
Exact Audio Copy V1.0 beta 3 from 29. August 2011

Отчёт EAC об извлечении, выполненном 7. мая 2012, 22:21

Tiesto / Tiesto - Club Life - Volume Two Miami

Дисковод: hp CDDVDW TS-L633R Adapter: 0 ID: 1

Режим чтения : ДостоверностьИспользование точного потока : ДаОтключение кэша аудио : ДаИспользование указателей C2 : Нет

Коррекция смещения при чтении : 6Способность читать области Lead-in и Lead-out : НетЗаполнение пропущенных сэмплов тишиной : ДаУдаление блоков с тишиной в начале и конце : НетПри вычислениях CRC использовались нулевые сэмплы : ДаИнтерфейс : Встроенный Win32-интерфейс для Win NT/2000Обработка зазоров : Добавлено к предыдущему треку

Выходной формат : Внутренние WAV-операцииФормат сэмплов : 44.100 Гц; 16 бит; стерео

TOC извлечённого CD

Трек | Старт | Длительность | Начальный сектор | Конечный сектор --------------------------------------------------------------------- 1 | 0:00.00 | 2:04.45 | 0 | 9344 2 | 2:04.45 | 4:15.00 | 9345 | 28469 3 | 6:19.45 | 4:29.56 | 28470 | 48700 4 | 10:49.26 | 4:45.18 | 48701 | 70093 5 | 15:34.44 | 3:00.01 | 70094 | 83594 6 | 18:34.45 | 3:45.00 | 83595 | 100469 7 | 22:19.45 | 4:15.10 | 100470 | 119604 8 | 26:34.55 | 6:06.68 | 119605 | 147122 9 | 32:41.48 | 5:03.57 | 147123 | 169904 10 | 37:45.30 | 5:14.40 | 169905 | 193494 11 | 42:59.70 | 5:15.36 | 193495 | 217155 12 | 48:15.31 | 5:49.01 | 217156 | 243331 13 | 54:04.32 | 5:19.00 | 243332 | 267256 14 | 59:23.32 | 4:39.29 | 267257 | 288210 15 | 64:02.61 | 6:00.01 | 288211 | 315211 16 | 70:02.62 | 4:29.29 | 315212 | 335415

Трек 1

Имя файла C:\Users\1\Downloads\01 Tiesto - Miami (Original Mix).wav

Длина предзазора 0:00:02.00

Пиковый уровень 100.0 % Скорость извлечения 1.0 X Качество трека 100.0 % CRC теста 8E77D19D CRC копии 8E77D19D Трек не обнаружен в базе AccurateRip Копирование... OK

Трек 2

Имя файла C:\Users\1\Downloads\02 Tiesto - Chasing Summers (Original Mix).wav

Пиковый уровень 100.0 % Скорость извлечения 1.3 X Качество трека 100.0 % CRC теста 37F1961D CRC копии 37F1961D Трек не обнаружен в базе AccurateRip Копирование... OK

Трек 3

Имя файла C:\Users\1\Downloads\03 Tiesto & Wolfgang Gartner - We Own The Night ft. Luciana (Original Mix).wav

Пиковый уровень 100.0 % Скорость извлечения 1.4 X Качество трека 100.0 % CRC теста 2F5BB657 CRC копии 2F5BB657 Трек не обнаружен в базе AccurateRip Копирование... OK

Трек 4

Имя файла C:\Users\1\Downloads\04 Tiesto - What Can We Do (A Deeper Love) (Third Party Remix).wav

Пиковый уровень 100.0 % Скорость извлечения 1.6 X Качество трека 100.0 % CRC теста C0645988 CRC копии C0645988 Трек не обнаружен в базе AccurateRip Копирование... OK

Трек 5

Имя файла C:\Users\1\Downloads\05 Baggi Begovic ft. Josie Cotton - If A Lie Was Love (Baggi Begovic KNAL Mix).wav

Пиковый уровень 100.0 % Скорость извлечения 1.5 X Качество трека 100.0 % CRC теста 02D44852 CRC копии 02D44852 Трек не обнаружен в базе AccurateRip Копирование... OK

Трек 6

Имя файла C:\Users\1\Downloads\06 Gotye ft. Kimbra - Somebody I Used To Know (Tiesto Remix).wav

Пиковый уровень 100.0 % Скорость извлечения 1.7 X Качество трека 100.0 % CRC теста 035B9475 CRC копии 035B9475 Трек не обнаружен в базе AccurateRip Копирование... OK

Трек 7

Имя файла C:\Users\1\Downloads\07 Coldplay - Paradise (Tiesto Remix).wav

Пиковый уровень 100.0 % Скорость извлечения 1.8 X Качество трека 100.0 % CRC теста 36037DE3 CRC копии 36037DE3 Трек не обнаружен в базе AccurateRip Копирование... OK

Трек 8

Имя файла C:\Users\1\Downloads\08 Sultan + Ned Shepard ft. Quilla - Walls (Original Mix).wav

Пиковый уровень 100.0 % Скорость извлечения 2.0 X Качество трека 100.0 % CRC теста B5071455 CRC копии B5071455 Трек не обнаружен в базе AccurateRip Копирование... OK

Трек 9

Имя файла C:\Users\1\Downloads\09 The Naked & Famous - Young Blood (Tiesto & Hardwell Remix).wav

Пиковый уровень 100.0 % Скорость извлечения 1.8 X Качество трека 99.9 % CRC теста ACF4A3AE CRC копии ACF4A3AE Трек не обнаружен в базе AccurateRip Копирование... OK

Трек 10

Имя файла C:\Users\1\Downloads\10 John Dahlback - Life (Original Mix).wav

Пиковый уровень 100.0 % Скорость извлечения 2.1 X Качество трека 100.0 % CRC теста 8A8695E3 CRC копии 8A8695E3 Трек не обнаружен в базе AccurateRip Копирование... OK

Трек 11

Имя файла C:\Users\1\Downloads\11 John De Sohn ft. Andreas Moe - Long Time (Original Mix).wav

Пиковый уровень 100.0 % Скорость извлечения 2.2 X Качество трека 100.0 % CRC теста 3B19181B CRC копии 3B19181B Трек не обнаружен в базе AccurateRip Копирование... OK

Трек 12

Имя файла C:\Users\1\Downloads\12 Ivan Gough & Feenixpawl ft. Georgi Kay - In My Mind (Axwell Mix).wav

Пиковый уровень 100.0 % Скорость извлечения 2.4 X Качество трека 100.0 % CRC теста B9E9626D CRC копии B9E9626D Трек не обнаружен в базе AccurateRip Копирование... OK

Трек 13

Имя файла C:\Users\1\Downloads\13 Avesta - Arena (Original Mix).wav

Пиковый уровень 100.0 % Скорость извлечения 2.4 X Качество трека 100.0 % CRC теста 2E7E5C5C CRC копии 2E7E5C5C Трек не обнаружен в базе AccurateRip Копирование... OK

Трек 14

Имя файла C:\Users\1\Downloads\14 Afrojack & Shermanology - Can't Stop Me (Tiesto Remix).wav

Пиковый уровень 100.0 % Скорость извлечения 2.4 X Качество трека 100.0 % CRC теста 66647C76 CRC копии 66647C76 Трек не обнаружен в базе AccurateRip Копирование... OK

Трек 15

Имя файла C:\Users\1\Downloads\15 Tiesto & Swanky Tunes - Make Some Noise ft. Ben McInerney of New Navy (Original Mix).wav

Пиковый уровень 100.0 % Скорость извлечения 2.6 X Качество трека 100.0 % CRC теста FCDDCBA9 CRC копии FCDDCBA9 Трек не обнаружен в базе AccurateRip Копирование... OK

Трек 16

Имя файла C:\Users\1\Downloads\16 Unknown Title.wav

Пиковый уровень 100.0 % Скорость извлечения 2.6 X Качество трека 100.0 % CRC теста E5F042B1 CRC копии E5F042B1 Трек не обнаружен в базе AccurateRip Копирование... OK

Ни одного трека нет в базе AccurateRip

Ошибок не произошло

Конец отчёта


Трекер:  [ 09-Май-2012 20:58 ]

  

Скачать .torrent

Размер .torrent файла 12 KB


Размер: 571 MB
Хэш (hash) релиза: b515197dc3db5e294f58b58562efb74293ed9494

Еще никто не оставлял запись к записи скачать торрент Tiësto - Club Life: Volume Two Miami - 2012 . Будь первым!

!Обратная связь