Скачать через торрент Mick Jagger - Дискография Discography бесплатно русская версия torrent активатор

Если у вас наблюдаются проблемы со скриншотами, переходом по ссылками, скачиванием торрентов - проблемы в блокировщике рекламы AdBlock. #хорошегоДня!


Статистика раздачи
Размер:  2.66 GB   |    Зарегистрирован:  5 лет 5 месяцев   |    .torrent скачан:  115 раз   |   
Раздают:  1  
   
Загрузка...
 
Автор Сообщение

L


Mick Jagger
Дискография / Discography
Страна: UK
Год: 1985-2007
Жанр: Rock, Soundtrack
Тексты: вшиты
Обложки: вшиты (600x600)
Кодек: ALAC
Программа-риповщик: foobar2000 + iTunes (lossless)
Битрейт: lossless
Доп. информация: прописана графа "Композитор", альбомы отсортированы по хронологии их выхода.

Сэр Мик Джаггер (Мик Джэггер, англ. Mick Jagger, полное имя Майкл Филипп Джаггер, англ. Michael Philip Jagger) — английский рок-музыкант, актер, продюсер, фронтмен группы Rolling Stones.

Майкл Джаггер родился 26 июля 1943 года в Дартфорде (графство Кент). Его отец работал преподавателем физкультуры, а мать участвовала в работе ассоциации консерваторов. Майкл учился в лондонской школе экономики. Школа не представляла никакого интереса для Майкла, единственное, что ему нравилось — это уроки пения. Петь он старался как можно громче, и однажды настолько увлекся, что откусил себе кончик языка. Вскоре он ушел из школы по причине, что образованная им вместе с Брайаном Джонсом и Китом Ричардсом группа Rolling Stones становилась все более и более популярной.
Впервые Мик Джаггер и Кит Ричардс познакомились на игровой площадке. В 1958 году Джаггер стал участником блюзовой группы «Little Boy Blue & The Blue Boys». Кит поступил в школу искусств, где познакомился со старым другом Мика и его коллегой по «Little Boy Blue» Диком Тэйлором. При очередной встрече Майка и Кита товарищи сошлись на том, что Кит должен пройти прослушивание в «Little Boy Blue & The Blue Boys». В 1961-м Майк Джаггер стал Миком Джаггером. К тому времени Брайан Джонс покинул «The Ramrods», в которой он играл на альт-саксофоне, и переехал в Лондон. Он устроился гитаристом в «Blues Incorporated», мечтая о создании собственной группы, куда хотел пригласить своего друга и коллегу, блюзового пианиста Яна Стюарта. В «Blues Inc.» играл и Чарли Уоттс. В конце года произошло знакомство Брайэна с Миком и Китом. Они часто играли вместе, ангажируя также Дика Тэйлора и Яна Стюарта.
В 1962 году в «Jazz News» впервые промелькнуло название «Rolling Stones». А 12 июля состоялось первое официальное выступление группы в лондонском клубе «Marquee». В сентябре Дик Тэйлор покинул команду. А в декабре Билл Уаймэн официально присоединился к группе как басист. В январе 1963-го к «Stones» присоединился Чарли Уоттс, сменив Мика Эйвори.
Образ, созданный Джаггером на сцене, уникален. Его голос, временами грубый, временами женственный и мягкий, толстые губы, похотливая улыбка, недвусмысленные сексуальные движения на концертах перед многотысячной толпой, агрессия, энергичность, и вместе с тем, дурашливость и кривляние — все это сделало Джаггера одним из самых популярных рок-фронтменов. Заслуги Джаггера на музыкальном поприще были высоко оценены — к 60-летнему юбилею королева Елизавета II посвятила Джаггера в рыцари.
В одном из интервью Мик Джаггер сравнивая 1968 и 1998 год, сказал, что раньше в троице «Секс, наркотики и рок-н-ролл» секс стоял на первом месте, а теперь на его месте наркотики. Сейчас Джаггер заявил, что бросает пить, курить и принимать наркотики. Причиной такого решения стало беспокойство о собственном здоровье, ведь Джаггер уже не молодой. «Я дорожу своим добрым именем и не желаю прослыть старой развалиной. Ведь мы все еще „звезды“, хоть и со статусом „живых легенд“!» — заявил Мик Джаггер.
Страна-производитель диска: Germany
Год издания диска: 1985
Лейбл: Atlantic
Каталоговый номер: 7567-82553-2
Тип издания: оригинал

Продолжительность: 43,1 мин

01 Lonely At The Top 3:47
02 1/2 A Loaf 4:59
03 Running Out Of Luck 4:16
04 Turn The Girl Loose 3:56
05 Hard Woman 4:26
06 Just Another Night 5:16
07 Lucky In Love 6:14
08 Secrets 5:03
09 She's The Boss 5:15
Exact Audio Copy V0.99 prebeta 5 from 4. May 2009

Отчёт EAC об извлечении, выполненном 7. октября 2010, 15:06

Mick Jagger / She's The Boss

Дисковод: HL-DT-STDVDRAM GSA-H42L Adapter: 2 ID: 1

Режим чтения : Достоверность
Использование точного потока : Да
Отключение кэша аудио : Да
Использование указателей C2 : Нет

Коррекция смещения при чтении : 667
Способность читать области Lead-in и Lead-out : Нет
Заполнение пропущенных сэмплов тишиной : Да
Удаление блоков с тишиной в начале и конце : Нет
При вычислениях CRC использовались нулевые сэмплы : Да
Интерфейс : Встроенный Win32-интерфейс для Win NT/2000

Выходной формат : Пользовательский кодировщик
Выбранный битрейт : 1024 kBit/s
Качество : Высокий
Добавление ID3-тэга : Нет
Утилита сжатия : C:\Program Files\Exact Audio Copy\Flac\flac.exe
Дополнительные параметры : -T "DATE=%y" -T "GENRE=%m" -8 -V %s

TOC извлечённого CD

Трек | Старт | Длительность | Начальный сектор | Конечный сектор
---------------------------------------------------------------------
1 | 0:00.00 | 3:47.12 | 0 | 17036
2 | 3:47.12 | 4:58.50 | 17037 | 39436
3 | 8:45.62 | 4:15.40 | 39437 | 58601
4 | 13:01.27 | 3:55.38 | 58602 | 76264
5 | 16:56.65 | 4:25.50 | 76265 | 96189
6 | 21:22.40 | 5:15.72 | 96190 | 119886
7 | 26:38.37 | 6:14.08 | 119887 | 147944
8 | 32:52.45 | 5:03.02 | 147945 | 170671
9 | 37:55.47 | 5:14.53 | 170672 | 194274

Характеристики диапазона извлечения и сообщения об ошибках

Выбранный диапазон

Имя файла K:\SOUNDS\ROCK\MICK JAGGER\1985 - She's The Boss\Mick Jagger - She's The Boss.wav

Пиковый уровень 100.0 %
Качество диапазона 100.0 %
CRC копии 8A1A0A0D
Копирование... OK

Ошибок не произошло

AccurateRip: сводка

Трек 1 точное извлечение (доверие 33) [C64E86D2]
Трек 2 точное извлечение (доверие 33) [D5D14A19]
Трек 3 точное извлечение (доверие 33) [B0D29E39]
Трек 4 точное извлечение (доверие 33) [12FB2E79]
Трек 5 точное извлечение (доверие 33) [CE2AE0F3]
Трек 6 точное извлечение (доверие 33) [58E30BD8]
Трек 7 точное извлечение (доверие 33) [EC671624]
Трек 8 точное извлечение (доверие 33) [050EBF25]
Трек 9 точное извлечение (доверие 33) [E4A2C4E5]

Все треки извлечены точно

Конец отчёта
Страна-производитель диска: Germany
Год издания диска: 1987
Лейбл: Atlantic
Каталоговый номер: 7567-82554-2
Тип издания: оригинал

Продолжительность: 49,2 мин

01 Throwaway 5:04
02 Let's work 4:51
03 Radio Control 3:56
04 Say you will 5:07
05 Primitive Cool 5:50
06 Kow Tow 4:55
07 Shoot off your mouth 3:34
08 Peace for the wicked 4:04
09 Party doll 5:20
10 War Baby 6:39
Exact Audio Copy V0.99 prebeta 5 from 4. May 2009

Отчёт EAC об извлечении, выполненном 6. марта 2011, 18:24

Mick Jagger / Primitive Cool

Дисковод: HL-DT-STDVDRAM GSA-H42L Adapter: 1 ID: 1

Режим чтения : Достоверность
Использование точного потока : Да
Отключение кэша аудио : Да
Использование указателей C2 : Нет

Коррекция смещения при чтении : 667
Способность читать области Lead-in и Lead-out : Нет
Заполнение пропущенных сэмплов тишиной : Да
Удаление блоков с тишиной в начале и конце : Нет
При вычислениях CRC использовались нулевые сэмплы : Да
Интерфейс : Встроенный Win32-интерфейс для Win NT/2000

Выходной формат : Пользовательский кодировщик
Выбранный битрейт : 1024 kBit/s
Качество : Высокий
Добавление ID3-тэга : Нет
Утилита сжатия : C:\Program Files\FLAC\FLAC.EXE
Дополнительные параметры : -6 -V -T "ARTIST=%a" -T "TITLE=%t" -T "ALBUM=%g" -T "DATE=%y" -T "TRACKNUMBER=%n" -T "GENRE=%m" -T "COMMENT=%e" %s -o %d

TOC извлечённого CD

Трек | Старт | Длительность | Начальный сектор | Конечный сектор
---------------------------------------------------------------------
1 | 0:00.00 | 5:04.12 | 0 | 22811
2 | 5:04.12 | 4:50.58 | 22812 | 44619
3 | 9:54.70 | 3:56.32 | 44620 | 62351
4 | 13:51.27 | 5:07.23 | 62352 | 85399
5 | 18:58.50 | 5:49.62 | 85400 | 111636
6 | 24:48.37 | 4:54.68 | 111637 | 133754
7 | 29:43.30 | 3:34.37 | 133755 | 149841
8 | 33:17.67 | 4:03.48 | 149842 | 168114
9 | 37:21.40 | 5:19.67 | 168115 | 192106
10 | 42:41.32 | 6:39.30 | 192107 | 222061

Характеристики диапазона извлечения и сообщения об ошибках

Выбранный диапазон

Имя файла V:\MUSIC\ROCK\MICK JAGGER\Mick Jagger - Primitive Cool.wav

Пиковый уровень 100.0 %
Качество диапазона 100.0 %
CRC теста 725EC7B9
CRC копии 725EC7B9
Копирование... OK

Ошибок не произошло

AccurateRip: сводка

Трек 1 точное извлечение (доверие 27) [02C2B4DB]
Трек 2 точное извлечение (доверие 27) [A5BFD9F2]
Трек 3 точное извлечение (доверие 27) [99F44D19]
Трек 4 точное извлечение (доверие 27) [6B419793]
Трек 5 точное извлечение (доверие 27) [34557838]
Трек 6 точное извлечение (доверие 27) [10CB2800]
Трек 7 точное извлечение (доверие 27) [B90AE2EB]
Трек 8 точное извлечение (доверие 27) [F0DFFA74]
Трек 9 точное извлечение (доверие 27) [0727F92F]
Трек 10 точное извлечение (доверие 27) [16439398]

Все треки извлечены точно

Конец отчёта
Страна-производитель диска: US
Год издания диска: 1993
Лейбл: Atlantic
Каталоговый номер: 7 82436-2
Тип издания: первопресс

Продолжительность: 53,9 мин

01 Wired All Night 4:06
02 Sweet Thing 4:20
03 Out Of Focus 4:36
04 Don't Tear Me Up 4:13
05 Put Me In The Trash 3:35
06 Use Me 4:29
07 Evening Gown 3:32
08 Mother Of A Man 4:18
09 Think 2:59
10 Wandering Spirit 4:19
11 Hang On To Me Tonight 4:37
12 I've Been Lonely For So Long 3:29
13 Angel In My Heart 3:28
14 Handsome Molly 2:06
X Lossless Decoder version 20100401 (117.0)

XLD extraction logfile from 2010-05-03 19:42:06 +0600

Mick Jagger / Wandering Spirit

Used drive : OPTIARC DVD RW AD-5670S (revision 2AHH)

Use cdparanoia mode : YES (CDParanoia III 10.2 engine)
Disable audio cache : OK for the drive with cache less than 2750KB
Make use of C2 pointers : NO
Read offset correction : 48
Max retry count : 100

TOC of the extracted CD
Track | Start | Length | Start sector | End sector
---------------------------------------------------------
1 | 00:00:33 | 04:05:30 | 33 | 18437
2 | 04:05:63 | 04:19:40 | 18438 | 37902
3 | 08:25:28 | 04:35:42 | 37903 | 58569
4 | 13:00:70 | 04:12:73 | 58570 | 77542
5 | 17:13:68 | 03:35:20 | 77543 | 93687
6 | 20:49:13 | 04:28:60 | 93688 | 113847
7 | 25:17:73 | 03:32:32 | 113848 | 129779
8 | 28:50:30 | 04:17:40 | 129780 | 149094
9 | 33:07:70 | 02:59:10 | 149095 | 162529
10 | 36:07:05 | 04:18:58 | 162530 | 181937
11 | 40:25:63 | 04:36:65 | 181938 | 202702
12 | 45:02:53 | 03:29:10 | 202703 | 218387
13 | 48:31:63 | 03:27:62 | 218388 | 233974
14 | 51:59:50 | 02:06:20 | 233975 | 243444

Track 01
Filename : /Users/gubarenko/Desktop/Mick Jagger - Wandering Spirit/01 - Wired All Night.flac

Pre-gap length : 00:02:33

CRC32 hash (test run) : D823BC9A
CRC32 hash : D823BC9A
CRC32 hash (skip zero) : A2928EA7
AccurateRip signature : E5C2BA43
->Accurately ripped! (confidence 54)
Statistics
Read error : 0
Skipped (treated as error) : 0
Edge jitter error (maybe fixed) : 0
Atom jitter error (maybe fixed) : 0
Drift error (maybe fixed) : 0
Dropped bytes error (maybe fixed) : 0
Duplicated bytes error (maybe fixed) : 0
Inconsistency in error sectors : 0

Track 02
Filename : /Users/gubarenko/Desktop/Mick Jagger - Wandering Spirit/02 - Sweet Thing.flac

CRC32 hash (test run) : 3F340321
CRC32 hash : 3F340321
CRC32 hash (skip zero) : 02B0A5E4
AccurateRip signature : 8FFA8560
->Accurately ripped! (confidence 54)
Statistics
Read error : 0
Skipped (treated as error) : 0
Edge jitter error (maybe fixed) : 0
Atom jitter error (maybe fixed) : 0
Drift error (maybe fixed) : 0
Dropped bytes error (maybe fixed) : 0
Duplicated bytes error (maybe fixed) : 0
Inconsistency in error sectors : 0

Track 03
Filename : /Users/gubarenko/Desktop/Mick Jagger - Wandering Spirit/03 - Out of Focus.flac

CRC32 hash (test run) : 53861024
CRC32 hash : 53861024
CRC32 hash (skip zero) : 2CDBA25F
AccurateRip signature : E9ED883F
->Accurately ripped! (confidence 54)
Statistics
Read error : 0
Skipped (treated as error) : 0
Edge jitter error (maybe fixed) : 0
Atom jitter error (maybe fixed) : 0
Drift error (maybe fixed) : 0
Dropped bytes error (maybe fixed) : 0
Duplicated bytes error (maybe fixed) : 0
Inconsistency in error sectors : 0

Track 04
Filename : /Users/gubarenko/Desktop/Mick Jagger - Wandering Spirit/04 - Don't Tear Me Up.flac

Pre-gap length : 00:00:02

CRC32 hash (test run) : 304C4198
CRC32 hash : 304C4198
CRC32 hash (skip zero) : 547CAA08
AccurateRip signature : 25514647
->Accurately ripped! (confidence 54)
Statistics
Read error : 0
Skipped (treated as error) : 0
Edge jitter error (maybe fixed) : 0
Atom jitter error (maybe fixed) : 0
Drift error (maybe fixed) : 0
Dropped bytes error (maybe fixed) : 0
Duplicated bytes error (maybe fixed) : 0
Inconsistency in error sectors : 0

Track 05
Filename : /Users/gubarenko/Desktop/Mick Jagger - Wandering Spirit/05 - Put Me in the Trash.flac

Pre-gap length : 00:01:68

CRC32 hash (test run) : C789587D
CRC32 hash : C789587D
CRC32 hash (skip zero) : 63314A68
AccurateRip signature : BD777F69
->Accurately ripped! (confidence 54)
Statistics
Read error : 0
Skipped (treated as error) : 0
Edge jitter error (maybe fixed) : 1
Atom jitter error (maybe fixed) : 1
Drift error (maybe fixed) : 0
Dropped bytes error (maybe fixed) : 0
Duplicated bytes error (maybe fixed) : 0
Inconsistency in error sectors : 0

Track 06
Filename : /Users/gubarenko/Desktop/Mick Jagger - Wandering Spirit/06 - Use Me.flac

Pre-gap length : 00:00:03

CRC32 hash (test run) : 8512F135
CRC32 hash : 8512F135
CRC32 hash (skip zero) : C843EA4C
AccurateRip signature : 6CC3583B
->Accurately ripped! (confidence 55)
Statistics
Read error : 0
Skipped (treated as error) : 0
Edge jitter error (maybe fixed) : 0
Atom jitter error (maybe fixed) : 0
Drift error (maybe fixed) : 0
Dropped bytes error (maybe fixed) : 0
Duplicated bytes error (maybe fixed) : 0
Inconsistency in error sectors : 0

Track 07
Filename : /Users/gubarenko/Desktop/Mick Jagger - Wandering Spirit/07 - Evening Gown.flac

Pre-gap length : 00:01:03

CRC32 hash (test run) : 07079CD7
CRC32 hash : 07079CD7
CRC32 hash (skip zero) : EDDDBB42
AccurateRip signature : 88EC02E8
->Accurately ripped! (confidence 52)
Statistics
Read error : 0
Skipped (treated as error) : 0
Edge jitter error (maybe fixed) : 0
Atom jitter error (maybe fixed) : 0
Drift error (maybe fixed) : 0
Dropped bytes error (maybe fixed) : 0
Duplicated bytes error (maybe fixed) : 0
Inconsistency in error sectors : 0

Track 08
Filename : /Users/gubarenko/Desktop/Mick Jagger - Wandering Spirit/08 - Mother of a Man.flac

CRC32 hash (test run) : 141AD46A
CRC32 hash : 141AD46A
CRC32 hash (skip zero) : F172D60A
AccurateRip signature : 7BF2194D
->Accurately ripped! (confidence 51)
Statistics
Read error : 0
Skipped (treated as error) : 0
Edge jitter error (maybe fixed) : 0
Atom jitter error (maybe fixed) : 0
Drift error (maybe fixed) : 0
Dropped bytes error (maybe fixed) : 0
Duplicated bytes error (maybe fixed) : 0
Inconsistency in error sectors : 0

Track 09
Filename : /Users/gubarenko/Desktop/Mick Jagger - Wandering Spirit/09 - Think.flac

CRC32 hash (test run) : 24F57211
CRC32 hash : 24F57211
CRC32 hash (skip zero) : A574D0C1
AccurateRip signature : 7A1E7162
->Accurately ripped! (confidence 54)
Statistics
Read error : 0
Skipped (treated as error) : 0
Edge jitter error (maybe fixed) : 0
Atom jitter error (maybe fixed) : 0
Drift error (maybe fixed) : 0
Dropped bytes error (maybe fixed) : 0
Duplicated bytes error (maybe fixed) : 0
Inconsistency in error sectors : 0

Track 10
Filename : /Users/gubarenko/Desktop/Mick Jagger - Wandering Spirit/10 - Wandering Spirit.flac

CRC32 hash (test run) : EB259511
CRC32 hash : EB259511
CRC32 hash (skip zero) : DD92EC75
AccurateRip signature : D593C492
->Accurately ripped! (confidence 52)
Statistics
Read error : 0
Skipped (treated as error) : 0
Edge jitter error (maybe fixed) : 0
Atom jitter error (maybe fixed) : 0
Drift error (maybe fixed) : 0
Dropped bytes error (maybe fixed) : 0
Duplicated bytes error (maybe fixed) : 0
Inconsistency in error sectors : 0

Track 11
Filename : /Users/gubarenko/Desktop/Mick Jagger - Wandering Spirit/11 - Hang on to Me Tonight.flac

Pre-gap length : 00:00:38

CRC32 hash (test run) : 74F132AC
CRC32 hash : 74F132AC
CRC32 hash (skip zero) : 0CEFB0A1
AccurateRip signature : F227A334
->Accurately ripped! (confidence 52)
Statistics
Read error : 0
Skipped (treated as error) : 0
Edge jitter error (maybe fixed) : 0
Atom jitter error (maybe fixed) : 0
Drift error (maybe fixed) : 0
Dropped bytes error (maybe fixed) : 0
Duplicated bytes error (maybe fixed) : 0
Inconsistency in error sectors : 0

Track 12
Filename : /Users/gubarenko/Desktop/Mick Jagger - Wandering Spirit/12 - I've Been Lonely for So Long.flac

CRC32 hash (test run) : 48898A52
CRC32 hash : 48898A52
CRC32 hash (skip zero) : 1D6CD0FE
AccurateRip signature : F2511C3E
->Accurately ripped! (confidence 51)
Statistics
Read error : 0
Skipped (treated as error) : 0
Edge jitter error (maybe fixed) : 0
Atom jitter error (maybe fixed) : 0
Drift error (maybe fixed) : 0
Dropped bytes error (maybe fixed) : 0
Duplicated bytes error (maybe fixed) : 0
Inconsistency in error sectors : 0

Track 13
Filename : /Users/gubarenko/Desktop/Mick Jagger - Wandering Spirit/13 - Angel in My Heart.flac

CRC32 hash (test run) : C30CB8CD
CRC32 hash : C30CB8CD
CRC32 hash (skip zero) : 28EB7AE8
AccurateRip signature : 0019B569
->Accurately ripped! (confidence 52)
Statistics
Read error : 0
Skipped (treated as error) : 0
Edge jitter error (maybe fixed) : 0
Atom jitter error (maybe fixed) : 0
Drift error (maybe fixed) : 0
Dropped bytes error (maybe fixed) : 0
Duplicated bytes error (maybe fixed) : 0
Inconsistency in error sectors : 0

Track 14
Filename : /Users/gubarenko/Desktop/Mick Jagger - Wandering Spirit/14 - Handsome Molly.flac

Pre-gap length : 00:03:55

CRC32 hash (test run) : 9790E4AE
CRC32 hash : 9790E4AE
CRC32 hash (skip zero) : 04B670FF
AccurateRip signature : 5E4F9255
->Accurately ripped! (confidence 52)
Statistics
Read error : 0
Skipped (treated as error) : 0
Edge jitter error (maybe fixed) : 0
Atom jitter error (maybe fixed) : 0
Drift error (maybe fixed) : 0
Dropped bytes error (maybe fixed) : 0
Duplicated bytes error (maybe fixed) : 0
Inconsistency in error sectors : 0

No errors occurred

End of status report
Страна-производитель диска: US
Год издания диска: 2001
Лейбл: Virgin Records America
Каталоговый номер: 7243 8 11288 2 4
Тип издания: оригинал

Продолжительность: 56,7 мин

01 Visions of Paradise 4:01
02 Joy 4:41
03 Dancing in the Starlight 4:06
04 God Gave Me Everything 3:34
05 Hide Away 4:34
06 Don't Call Me Up 5:14
07 Goddess in the Doorway 4:56
08 Lucky Day 4:51
09 Everybody Getting High 3:56
10 Gun 4:41
11 Too Far Gone 4:36
12 Brand New Set of Rules 7:39
Exact Audio Copy V0.99 prebeta 3 from 28. July 2007

EAC extraction logfile from 20. November 2007, 12:39

Mick Jagger / Goddess In The Doorway

Used drive : HL-DT-STDVD-RAM GSA-H54N Adapter: 0 ID: 0

Read mode : Secure
Utilize accurate stream : Yes
Defeat audio cache : Yes
Make use of C2 pointers : No

Read offset correction : 102
Overread into Lead-In and Lead-Out : Yes
Fill up missing offset samples with silence : Yes
Delete leading and trailing silent blocks : No
Null samples used in CRC calculations : No
Used interface : Installed external ASPI interface
Gap handling : Appended to previous track

Used output format : Internal WAV Routines
Sample format : 44.100 Hz; 16 Bit; Stereo

TOC of the extracted CD

Track | Start | Length | Start sector | End sector
---------------------------------------------------------
1 | 0:00.00 | 4:01.30 | 0 | 18104
2 | 4:01.30 | 4:40.50 | 18105 | 39154
3 | 8:42.05 | 4:06.22 | 39155 | 57626
4 | 12:48.27 | 3:34.23 | 57627 | 73699
5 | 16:22.50 | 4:33.52 | 73700 | 94226
6 | 20:56.27 | 5:14.30 | 94227 | 117806
7 | 26:10.57 | 4:56.30 | 117807 | 140036
8 | 31:07.12 | 4:51.28 | 140037 | 161889
9 | 35:58.40 | 3:56.32 | 161890 | 179621
10 | 39:54.72 | 4:41.00 | 179622 | 200696
11 | 44:35.72 | 4:36.05 | 200697 | 221401
12 | 49:12.02 | 7:39.33 | 221402 | 255859

Track 1

Filename D:\RHCP - By the way\01 – Visions Of Paradise.wav

Pre-gap length 0:00:02.00

Peak level 95.4 %
Track quality 99.9 %
Test CRC CBC5C280
Copy CRC CBC5C280
Accurately ripped (confidence 11) [CACCE7A7]
Copy OK

Track 2

Filename D:\RHCP - By the way\02 – Joy.wav

Peak level 94.3 %
Track quality 100.0 %
Test CRC E5B9FE9A
Copy CRC E5B9FE9A
Accurately ripped (confidence 11) [439B953D]
Copy OK

Track 3

Filename D:\RHCP - By the way\03 – Dancing In The Starlight.wav

Pre-gap length 0:00:00.06

Peak level 95.4 %
Track quality 100.0 %
Test CRC 5320E662
Copy CRC 5320E662
Accurately ripped (confidence 11) [69D4B6AE]
Copy OK

Track 4

Filename D:\RHCP - By the way\04 – God Gave Me Everything.wav

Pre-gap length 0:00:00.01

Peak level 99.8 %
Track quality 100.0 %
Test CRC 9AFBA9AB
Copy CRC 9AFBA9AB
Accurately ripped (confidence 11) [9624B50E]
Copy OK

Track 5

Filename D:\RHCP - By the way\05 – Hide Away.wav

Pre-gap length 0:00:00.05

Peak level 99.8 %
Track quality 100.0 %
Test CRC 78A11E67
Copy CRC 78A11E67
Accurately ripped (confidence 11) [DDB27227]
Copy OK

Track 6

Filename D:\RHCP - By the way\06 – Don't Call Me Up.wav

Pre-gap length 0:00:02.49

Peak level 96.5 %
Track quality 100.0 %
Test CRC AA1DB991
Copy CRC AA1DB991
Accurately ripped (confidence 11) [F5FD940B]
Copy OK

Track 7

Filename D:\RHCP - By the way\07 – Goddess In The Doorway.wav

Peak level 96.5 %
Track quality 100.0 %
Test CRC 60499C61
Copy CRC 60499C61
Accurately ripped (confidence 11) [7E0A4EBE]
Copy OK

Track 8

Filename D:\RHCP - By the way\08 – Lucky Day.wav

Pre-gap length 0:00:00.01

Peak level 96.5 %
Track quality 100.0 %
Test CRC 6F46B203
Copy CRC 6F46B203
Accurately ripped (confidence 11) [7F26BB36]
Copy OK

Track 9

Filename D:\RHCP - By the way\09 – Everybody Getting High.wav

Pre-gap length 0:00:00.01

Peak level 99.8 %
Track quality 99.9 %
Test CRC 864AA013
Copy CRC 864AA013
Accurately ripped (confidence 11) [645CA248]
Copy OK

Track 10

Filename D:\RHCP - By the way\10 – Gun.wav

Pre-gap length 0:00:01.10

Peak level 99.8 %
Track quality 100.0 %
Test CRC F6D3C0D1
Copy CRC F6D3C0D1
Accurately ripped (confidence 11) [E148AEB4]
Copy OK

Track 11

Filename D:\RHCP - By the way\11 – Too Far Gone.wav

Pre-gap length 0:00:53.61

Peak level 88.0 %
Track quality 100.0 %
Test CRC 4134147A
Copy CRC 4134147A
Accurately ripped (confidence 11) [161AD2AC]
Copy OK

Track 12

Filename D:\RHCP - By the way\12 – Brand New Set Of Rules.wav

Pre-gap length 0:00:01.66

Peak level 96.5 %
Track quality 100.0 %
Test CRC CC246920
Copy CRC CC246920
Accurately ripped (confidence 11) [5B83FE49]
Copy OK

All tracks accurately ripped

No errors occurred

End of status report
Страна-производитель диска: EU
Год издания диска: 2004
Лейбл: Virgin
Каталоговый номер: 024386324122
Тип издания: оригинал

Продолжительность: 50,4 мин

01 Old Habits Die Hard 4:28
02 Blind Leading the Blind (Live Acoustic Version) 5:57
03 New York Hustle 2:44
04 Let's Make It Up 4:29
05 Wicked Time 4:19
06 Lonely Without You (This Christmas) 2:38
07 Darkness of Your Love 3:41
08 Jack the Lad 3:18
09 Oh Nikki 1:16
10 Blind Leading the Blind 4:29
11 Standing in the Rain 3:29
12 Counting the Days 3:13
13 Old Habits Reprise 2:12
14 Alfie 4:20
Exact Audio Copy V0.99 prebeta 4 from 23. January 2008

EAC extraction logfile from 19. July 2009, 19:55

Mick Jagger & Dave Stewart / Alfie [OST]

Used drive : ASUS DRW-2014S1 Adapter: 1 ID: 0

Read mode : Secure
Utilize accurate stream : Yes
Defeat audio cache : Yes
Make use of C2 pointers : No

Read offset correction : 6
Overread into Lead-In and Lead-Out : No
Fill up missing offset samples with silence : Yes
Delete leading and trailing silent blocks : No
Null samples used in CRC calculations : Yes
Used interface : Native Win32 interface for Win NT & 2000

Used output format : Internal WAV Routines
Sample format : 44.100 Hz; 16 Bit; Stereo

TOC of the extracted CD

Track | Start | Length | Start sector | End sector
---------------------------------------------------------
1 | 0:00.00 | 4:27.47 | 0 | 20071
2 | 4:27.47 | 5:57.33 | 20072 | 46879
3 | 10:25.05 | 2:43.67 | 46880 | 59171
4 | 13:08.72 | 4:28.55 | 59172 | 79326
5 | 17:37.52 | 4:18.50 | 79327 | 98726
6 | 21:56.27 | 2:37.40 | 98727 | 110541
7 | 24:33.67 | 3:41.30 | 110542 | 127146
8 | 28:15.22 | 3:17.60 | 127147 | 141981
9 | 31:33.07 | 1:16.25 | 141982 | 147706
10 | 32:49.32 | 4:28.50 | 147707 | 167856
11 | 37:18.07 | 3:29.10 | 167857 | 183541
12 | 40:47.17 | 3:12.70 | 183542 | 198011
13 | 44:00.12 | 2:11.60 | 198012 | 207896
14 | 46:11.72 | 4:20.05 | 207897 | 227401

Range status and errors

Selected range

Filename E:\Torrents\Mick Jagger & Dave Stewart - Alfie [OST]\Mick Jagger & Dave Stewart - Alfie [OST].wav

Peak level 99.8 %
Range quality 100.0 %
Copy CRC F5FBD537
Copy OK

No errors occurred

End of status report
Страна-производитель диска: Germany
Год издания диска: 2007
Лейбл: Rhino Entertainment Company
Каталоговый номер: 8122-74640-2
Тип издания: оригинал

Продолжительность: 1,2 часа

01 God Gave Me Everything 3:32
02 Put Me In The Trash 3:34
03 Just Anothe Night 5:15
04 Don't Tear Me Up 4:12
05 Charmed Life 3:36
06 Sweet Thing 4:19
07 Old Habits Die Hard (with Dave Stewart) 4:24
08 Dancing In The Street 3:19
09 Too Many Cooks (Spoil The Soup) 4:04
10 Memo From Turner 4:03
11 Lucky In Love 5:03
12 Let's Work 4:44
13 Joy 4:40
14 Don't Call Me Up 5:13
15 Checkin' Up On My Baby (with The Red Devils) 3:22
16 (You Got To Walk And) Don't Look Back 5:17
17 Evening Gown 3:33
Exact Audio Copy V0.99 prebeta 3 from 28. July 2007

Отчёт EAC об извлечении, выполненном 28. октября 2007, 21:54

Jagger, Mick / The Very Best Of Mick Jagger

Дисковод: _NEC DVD_RW ND-3520AW Adapter: 1 ID: 2

Режим чтения : Достоверность
Использование точного потока : Да
Отключение кэша аудио : Да
Использование указателей C2 : Нет

Коррекция смещения при чтении : 48
Способность читать области Lead-in и Lead-out : Нет
Заполнение пропущенных сэмплов тишиной : Да
Удаление блоков с тишиной в начале и конце : Нет
При вычислениях CRC использовались нулевые сэмплы : Да
Интерфейс : Встроенный Win32-интерфейс для Win NT/2000

Выходной формат : Внутренние WAV-операции
Формат сэмплов : 44.100 Гц; 16 бит; стерео

TOC извлечённого CD

Трек | Старт | Длительность | Начальный сектор | Конечный сектор
---------------------------------------------------------------------
1 | 0:00.00 | 3:32.25 | 0 | 15924
2 | 3:32.25 | 3:34.30 | 15925 | 32004
3 | 7:06.55 | 5:15.57 | 32005 | 55686
4 | 12:22.37 | 4:12.43 | 55687 | 74629
5 | 16:35.05 | 3:35.70 | 74630 | 90824
6 | 20:11.00 | 4:18.45 | 90825 | 110219
7 | 24:29.45 | 4:24.25 | 110220 | 130044
8 | 28:53.70 | 3:18.62 | 130045 | 144956
9 | 32:12.57 | 4:04.08 | 144957 | 163264
10 | 36:16.65 | 4:03.25 | 163265 | 181514
11 | 40:20.15 | 5:02.62 | 181515 | 204226
12 | 45:23.02 | 4:44.28 | 204227 | 225554
13 | 50:07.30 | 4:40.32 | 225555 | 246586
14 | 54:47.62 | 5:13.08 | 246587 | 270069
15 | 60:00.70 | 3:21.57 | 270070 | 285201
16 | 63:22.52 | 5:17.00 | 285202 | 308976
17 | 68:39.52 | 3:32.40 | 308977 | 324916

Характеристики диапазона извлечения и сообщения об ошибках

Выбранный диапазон

Имя файла E:\Music Lossless\Jagger Mick - The Very Best Of Mick Jagger (2007)\Jagger, Mick - The Very Best Of Mick Jagger.wav

Пиковый уровень 100.0 %
Качество диапазона 99.9 %
CRC теста 0FEAD818
CRC копии 0FEAD818
Копирование... OK

Ошибок не произошло

Конец отчёта
Страна-производитель диска: Germany
Год издания диска: 2011
Лейбл: A&M Records
Каталоговый номер: 2782118
Тип издания: оригинал (Limited deluxe edition)

Продолжительность: 1,1 часа

01 SuperHeavy 5:06
02 Unbelievable 3:51
03 Miracle Worker 4:09
04 Energy 3:42
05 Satyameva Jayathe 4:08
06 One Day One Night 4:37
07 Never Gonna Change 4:24
08 Beautiful People 5:00
09 Rock Me Gently 6:00
10 I Can't Take It No More 3:21
11 I Don't Mind 4:59
12 World Keeps Turning 3:47
13 Mahiya 3:26
14 Warring People 5:06
15 Common Ground 3:43
16 Hey Captain 3:33
Exact Audio Copy V1.0 beta 3 from 29. August 2011

Отчёт EAC об извлечении, выполненном 22. октября 2011, 13:55

SuperHeavy / SuperHeavy (Limited deluxe edition)

Дисковод: Optiarc DVD RW AD-7200A Adapter: 3 ID: 1

Режим чтения : Достоверность
Использование точного потока : Да
Отключение кэша аудио : Да
Использование указателей C2 : Нет

Коррекция смещения при чтении : 48
Способность читать области Lead-in и Lead-out : Нет
Заполнение пропущенных сэмплов тишиной : Да
Удаление блоков с тишиной в начале и конце : Нет
При вычислениях CRC использовались нулевые сэмплы : Да
Интерфейс : Установленный внешний ASPI-интерфейс

Выходной формат : Пользовательский кодировщик
Выбранный битрейт : 128 kBit/s
Качество : Высокий
Добавление ID3-тега : Нет
Утилита сжатия : C:\Program Files (x86)\Exact Audio Copy\FLAC\FLAC.EXE
Дополнительные параметры : -V -8 -T "Date=%year%" -T "Genre=%genre%" %source%

TOC извлечённого CD

Трек | Старт | Длительность | Начальный сектор | Конечный сектор
---------------------------------------------------------------------
1 | 0:00.00 | 5:05.67 | 0 | 22941
2 | 5:05.67 | 3:50.58 | 22942 | 40249
3 | 8:56.50 | 4:09.35 | 40250 | 58959
4 | 13:06.10 | 3:42.13 | 58960 | 75622
5 | 16:48.23 | 4:07.64 | 75623 | 94211
6 | 20:56.12 | 4:37.04 | 94212 | 114990
7 | 25:33.16 | 4:23.62 | 114991 | 134777
8 | 29:57.03 | 5:00.08 | 134778 | 157285
9 | 34:57.11 | 6:00.30 | 157286 | 184315
10 | 40:57.41 | 3:21.01 | 184316 | 199391
11 | 44:18.42 | 4:59.02 | 199392 | 221818
12 | 49:17.44 | 3:46.73 | 221819 | 238841
13 | 53:04.42 | 3:26.29 | 238842 | 254320
14 | 56:30.71 | 5:05.72 | 254321 | 277267
15 | 61:36.68 | 3:43.28 | 277268 | 294020
16 | 65:20.21 | 3:33.22 | 294021 | 310017

Характеристики диапазона извлечения и сообщения об ошибках

Выбранный диапазон

Имя файла I:\Temp\SuperHeavy\SuperHeavy - SuperHeavy (Limited deluxe edition).wav

Пиковый уровень 100.0 %
Скорость извлечения 4.4 X
Качество диапазона 100.0 %
CRC теста DD150F14
CRC копии DD150F14
Копирование... OK

Ошибок не произошло

AccurateRip: сводка

Трек 1 : извлечено точно (доверие 1) [5A465116] (AR v1)
Трек 2 : извлечено точно (доверие 1) [7FD6D7C2] (AR v1)
Трек 3 : извлечено точно (доверие 1) [3E3C79EF] (AR v1)
Трек 4 : извлечено точно (доверие 1) [A1D72298] (AR v1)
Трек 5 : извлечено точно (доверие 1) [7CAE0AE2] (AR v1)
Трек 6 : извлечено точно (доверие 1) [98A0CD94] (AR v1)
Трек 7 : извлечено точно (доверие 1) [7E8799CC] (AR v1)
Трек 8 : извлечено точно (доверие 1) [4D9B25B1] (AR v1)
Трек 9 : извлечено точно (доверие 1) [24920E15] (AR v1)
Трек 10 : извлечено точно (доверие 1) [3C7D9446] (AR v1)
Трек 11 : извлечено точно (доверие 1) [DDD9CFA1] (AR v1)
Трек 12 : извлечено точно (доверие 1) [756DC8CE] (AR v1)
Трек 13 : извлечено точно (доверие 1) [0C65FFB4] (AR v1)
Трек 14 : извлечено точно (доверие 1) [80C39B5F] (AR v1)
Трек 15 : извлечено точно (доверие 1) [831D1928] (AR v1)
Трек 16 : извлечено точно (доверие 1) [F75B7EF3] (AR v1)

Все треки извлечены точно

Конец отчёта

==== Контрольная сумма отчёта 8DDD62871D8D88209E3EEE28C2F391635CCA36AA620C9B063AF3AFA4DA986CC8 ====

- Рекомендуемая программа для открытия файлов представленного формата (Бесплатная)


Трекер:  [ 09-Май-2012 21:01 ]

  

Скачать .torrent

Размер .torrent файла 21 KB


Размер: 2.66 GB
Хэш (hash) релиза: 44728763741407e14623cbf831cf13400cf8a029

Еще никто не оставлял запись к записи скачать торрент Mick Jagger - Дискография Discography . Будь первым!

!Обратная связь