Скачать через торрент Rihanna - Loud бесплатно русская версия torrent активатор

Если у вас наблюдаются проблемы со скриншотами, переходом по ссылками, скачиванием торрентов - проблемы в блокировщике рекламы AdBlock. #хорошегоДня!


Статистика раздачи
Размер:  162 MB   |    Зарегистрирован:  5 лет 5 месяцев   |    .torrent скачан:  51 раз   |   
Раздают:  1  
   
Загрузка...
 
Автор Сообщение

L


Rihanna / Loud (Bonus Track Version)

Жанр: Pop
Страна: USA
Год издания: 2010
Издатель (лейбл): ℗ 2010 The Island Def Jam Music Group
Аудио кодек: AAC
Тип рипа: tracks
Битрейт аудио: 256 kbps
Продолжительность: 54:57
Источник: http://itunes.apple.com/us/album/loud/id458437339
Тексты: отсутствуют
Наличие сканов в содержимом раздачи: Digital Booklet

Треклист:
1. S&M
2. What's My Name? (feat. Drake)
3. Cheers (Drink to That)
4. Fading
5. Only Girl (In the World)
6. California King Bed
7. Man Down
8. Raining Men (feat. Nicki Minaj)
9. Complicated
10. Skin
11. Love The Way You Lie (Pt. 2) [feat. Eminem]
12. Love The Way You Lie (Piano Version) [Bonus Track]
13. Only Girl (In the World) [Bonus Video]
Параметры видео

Качество: WEB-DL
Продолжительность: 04:10
Формат: MPEG-4 (контейнер m4v)
Видео: H.264, 640 x 280 px (2,25:1), 25.000 fps, ~1527 kbps, без анаморфа
Аудио: Английский (AAC Stereo, 256 Кбит/сек, 44,1 КГц)
Общее
Полное имя : C:\Users\Ромашка\Desktop\База музыки с блога\Rihanna\Rihanna - Loud (Bonus Track Version)\13 Only Girl (In the World) [Bonus V.m4v
Формат : MPEG-4
Идентификатор кодека : M4V
Размер файла : 54,3 Мбайт
Продолжительность : 4 м. 10 с.
Общий поток : 1818 Кбит/сек
Название фильма : Only Girl (In The World) [Bonus Video]
Альбом : Loud (Bonus Track Version)
Альбом/Исполнитель : Rihanna
Трек/Положение : 13
Трек/Всего : 0
Исполнитель : Rihanna
Жанр : Pop
Дата записи : UTC 2003-04-28 07:00:00
Дата кодирования : UTC 2010-11-02 21:23:25
Дата пометки : UTC 2010-11-02 21:31:10
Библиотека кодирования : Apple QuickTime
Правообладатель : ℗ 2010 The Island Def Jam Music Group
Обложка : Yes
apID : <a href="mailto:elliott03@gmail.com" class="postLink">elliott03@gmail.com</a>
cnID : 402036036
rtng : 0
atID : 260963598
plID : 402035495
geID : 1614
sfID : 143460
akID : 0
stik : 6
purd : 2010-11-11 22:38:03
xid : Universal:isrc:USUV71002023

Видео
Идентификатор : 1
Формат : AVC
Формат/Информация : Advanced Video Codec
Профиль формата : <a href="mailto:Baseline@L3.0" class="postLink">Baseline@L3.0</a>
Параметр CABAC формата : Нет
Параметр ReFrames формата : 1 кадр
Идентификатор кодека : avc1
Идентификатор кодека/Информация : Advanced Video Coding
Продолжительность : 4 м. 10 с.
Битрейт : 1527 Кбит/сек
Ширина : 640 пикселей
Высота : 280 пикселей
Соотношение сторон : 2,25:1
Режим частоты кадров : Постоянный
Частота кадров : 29,970 кадров/сек
Цветовое пространство : YUV
Субдискретизация насыщенности : 4:2:0
Битовая глубина : 8 бит
Тип развёртки : Прогрессивная
Бит/(Пиксели*Кадры) : 0.284
Размер потока : 45,6 Мбайт (84%)
Язык : English
Дата кодирования : UTC 2010-11-02 21:31:05
Дата пометки : UTC 2010-11-02 21:31:10
Основные цвета : BT.601-6 525, BT.1358 525, BT.1700 NTSC, SMPTE 170M
Характеристики трансфера : BT.709-5, BT.1361
Коэффициенты матрицы : BT.601-6 525, BT.1358 525, BT.1700 NTSC, SMPTE 170M

Аудио
Идентификатор : 2
Формат : AAC
Формат/Информация : Advanced Audio Codec
Профиль формата : LC
Идентификатор кодека : 40
Продолжительность : 4 м. 10 с.
Продолжительность оригинала : 4 м. 10 с.
Вид битрейта : Постоянный
Битрейт : 256 Кбит/сек
Каналы : 2 канала
Расположение каналов : Front: L R
Частота : 44,1 КГц
Метод сжатия : С потерями
Размер потока : 7,53 Мбайт (14%)
Размер потока оригинала : 7,53 Мбайт (14%)
Язык : English
Дата кодирования : UTC 2010-11-02 21:31:05
Дата пометки : UTC 2010-11-02 21:31:10

Меню
Идентификатор : 3
Язык : English
Дата кодирования : UTC 2010-11-02 21:31:10
Дата пометки : UTC 2010-11-02 21:31:10


Трекер:  [ 09-Май-2012 07:15 ]

  

Скачать .torrent

Размер .torrent файла 14 KB


Размер: 162 MB
Хэш (hash) релиза: ef23e8dbef90c8538b119574b9d9129667d8cbc2

Торренты, похожие на Rihanna - Loud скачать торрент

Форум Название Автор Размер S L Добавлен
Видео (iPhone/iPod Touch/iPad) ·· Rihanna - Rihanna: Loud Tour - Live at the O2 [2012, США, Концерт, WEB-DL, HD (1080p)] L 48158533484.49 GB 0 0 1362041769

11:56

28-Фев-13

Еще никто не оставлял запись к записи скачать торрент Rihanna - Loud . Будь первым!

!Обратная связь