..."/> ...">

Скачать через торрент Beach House - Teen Dream - 2010 ALAC, lossless бесплатно русская версия torrent активатор

Если у вас наблюдаются проблемы со скриншотами, переходом по ссылками, скачиванием торрентов - проблемы в блокировщике рекламы AdBlock. #хорошегоДня!


Статистика раздачи
Размер:  329 MB   |    Зарегистрирован:  5 лет 5 месяцев   |    .torrent скачан:  39 раз   |   
Раздают:  1  
   
Загрузка...
 
Автор Сообщение

L


Beach House - Teen Dream

Год: 2010
Страна: US
Жанр: Indie, Dream Pop
Издатель (лейбл): Sub Pop
Продолжительность: 48:40
Тексты: вшиты
Кодек: ALAC
Программа-риповщик : foobar2000 + iTunes (lossless)
Битрейт: lossless
Треклист:
1. "Zebra" - 4:48
2. "Silver Soul" - 4:58
3. "Norway" - 3:54
4. "Walk in the Park" - 5:22
5. "Used to Be" - 3:58
6. "Lover of Mine" - 5:06
7. "Better Times" - 4:23
8. "10 Mile Stereo" - 5:03
9. "Real Love" - 5:20
10. "Take Care" - 5:48
  
Exact Audio Copy V0.99 prebeta 5 from 4. May 2009

EAC extraction logfile from 28. September 2010, 22:44

Beach House / Teen Dream

Used drive : TSSTcorpDVD+-RW TS-H653G Adapter: 0 ID: 0

Read mode : SecureUtilize accurate stream : YesDefeat audio cache : YesMake use of C2 pointers : No

Read offset correction : 6Overread into Lead-In and Lead-Out : NoFill up missing offset samples with silence : YesDelete leading and trailing silent blocks : NoNull samples used in CRC calculations : YesUsed interface : Native Win32 interface for Win NT & 2000Gap handling : Appended to previous track

Used output format : User Defined EncoderSelected bitrate : 128 kBit/sQuality : HighAdd ID3 tag : NoCommand line compressor : C:\Program Files (x86)\Exact Audio Copy\Flac\flac.exeAdditional command line options : -V -8 -T "artist=%a" -T "title=%t" -T "album=%g" -T "date=%y" -T "tracknumber=%n" -T "genre=%m" %s

TOC of the extracted CD

Track | Start | Length | Start sector | End sector --------------------------------------------------------- 1 | 0:00.00 | 4:48.54 | 0 | 21653 2 | 4:48.54 | 4:58.51 | 21654 | 44054 3 | 9:47.30 | 3:54.60 | 44055 | 61664 4 | 13:42.15 | 5:22.57 | 61665 | 85871 5 | 19:04.72 | 3:58.57 | 85872 | 103778 6 | 23:03.54 | 5:06.29 | 103779 | 126757 7 | 28:10.08 | 4:23.23 | 126758 | 146505 8 | 32:33.31 | 5:03.64 | 146506 | 169294 9 | 37:37.20 | 5:20.36 | 169295 | 193330 10 | 42:57.56 | 5:48.33 | 193331 | 219463

Track 1

Filename C:\rip\Beach House - Teen Dream (2010)\01 - Zebra.wav

Pre-gap length 0:00:02.00

Peak level 100.0 % Track quality 100.0 % Test CRC 5CC003BD Copy CRC 5CC003BD Accurately ripped (confidence 35) [667F5032] Copy OK

Track 2

Filename C:\rip\Beach House - Teen Dream (2010)\02 - Silver Soul.wav

Peak level 100.0 % Track quality 100.0 % Test CRC F88E0DD3 Copy CRC F88E0DD3 Accurately ripped (confidence 35) [EC9950BC] Copy OK

Track 3

Filename C:\rip\Beach House - Teen Dream (2010)\03 - Norway.wav

Peak level 100.0 % Track quality 100.0 % Test CRC 3E499175 Copy CRC 3E499175 Accurately ripped (confidence 35) [CF6D7FC4] Copy OK

Track 4

Filename C:\rip\Beach House - Teen Dream (2010)\04 - Walk in the Park.wav

Peak level 100.0 % Track quality 99.9 % Test CRC 4EB37B0B Copy CRC 4EB37B0B Accurately ripped (confidence 35) [6A1A9885] Copy OK

Track 5

Filename C:\rip\Beach House - Teen Dream (2010)\05 - Used to Be.wav

Peak level 100.0 % Track quality 99.9 % Test CRC EF5C6D89 Copy CRC EF5C6D89 Accurately ripped (confidence 35) [C4B4E540] Copy OK

Track 6

Filename C:\rip\Beach House - Teen Dream (2010)\06 - Lover of Mine.wav

Peak level 100.0 % Track quality 100.0 % Test CRC 67EF27AC Copy CRC 67EF27AC Accurately ripped (confidence 35) [C2A81975] Copy OK

Track 7

Filename C:\rip\Beach House - Teen Dream (2010)\07 - Better Times.wav

Pre-gap length 0:00:01.29

Peak level 100.0 % Track quality 99.9 % Test CRC C2079057 Copy CRC C2079057 Accurately ripped (confidence 35) [A3918224] Copy OK

Track 8

Filename C:\rip\Beach House - Teen Dream (2010)\08 - 10 Mile Stereo.wav

Peak level 100.0 % Track quality 99.9 % Test CRC 8139A131 Copy CRC 8139A131 Accurately ripped (confidence 35) [ACEEA831] Copy OK

Track 9

Filename C:\rip\Beach House - Teen Dream (2010)\09 - Real Love.wav

Peak level 100.0 % Track quality 100.0 % Test CRC AEAA6CF9 Copy CRC AEAA6CF9 Accurately ripped (confidence 35) [6A02C275] Copy OK

Track 10

Filename C:\rip\Beach House - Teen Dream (2010)\10 - Take Care.wav

Peak level 100.0 % Track quality 100.0 % Test CRC FA37BC8E Copy CRC FA37BC8E Accurately ripped (confidence 35) [F7B48132] Copy OK

All tracks accurately ripped

No errors occurred

End of status report


Трекер:  [ 08-Май-2012 07:17 ]

  

Скачать .torrent

Размер .torrent файла 13 KB


Размер: 329 MB
Хэш (hash) релиза: 536511c1b2596251fdaf46ec6b327e604b3486ae

Еще никто не оставлял запись к записи скачать торрент Beach House - Teen Dream - 2010 ALAC, lossless . Будь первым!

!Обратная связь