Скачать через торрент The Left Banke - The Left Banke Too - 1968 ALAC, lossless бесплатно русская версия torrent активатор

Если у вас наблюдаются проблемы со скриншотами, переходом по ссылками, скачиванием торрентов - проблемы в блокировщике рекламы AdBlock. #хорошегоДня!


Статистика раздачи
Размер:  191 MB   |    Зарегистрирован:  5 лет 5 месяцев   |    .torrent скачан:  29 раз   |   
Раздают:  1  
   
Загрузка...
 
Автор Сообщение

L


The Left Banke - The Left Banke Too

Год: 1968
Страна: US
Жанр: Baroque Pop
Продолжительность: 31:17
Тексты: вшиты частично (отсутствуют в 8 и 10 треке)
Кодек: ALAC
Программа-риповщик : foobar2000 + iTunes (lossless)
Битрейт: lossless
Треклист:
1. Goodbye Holly
2. There's Gonna Be a Storm
3. Sing Little Bird Sing
4. Nice to See You
5. Give the Man a Hand
6. Bryant Hotel Listen
7. Desiree* (mono)
8. Dark is the Bark
9. In the Morning Light
10. My Friend Today
  
Exact Audio Copy V1.0 beta 1 from 15. November 2010

EAC extraction logfile from 22. June 2011, 22:01

The Left Banke / The Left Banke Too

Used drive : hp CDDVDW TS-H653R Adapter: 0 ID: 0

Read mode : SecureUtilize accurate stream : YesDefeat audio cache : YesMake use of C2 pointers : No

Read offset correction : 6Overread into Lead-In and Lead-Out : NoFill up missing offset samples with silence : YesDelete leading and trailing silent blocks : NoNull samples used in CRC calculations : YesUsed interface : Native Win32 interface for Win NT & 2000Gap handling : Appended to previous track

Used output format : Internal WAV RoutinesSample format : 44.100 Hz; 16 Bit; Stereo

TOC of the extracted CD

Track | Start | Length | Start sector | End sector --------------------------------------------------------- 1 | 0:00.00 | 2:55.08 | 0 | 13132 2 | 2:55.08 | 4:16.07 | 13133 | 32339 3 | 7:11.15 | 3:07.69 | 32340 | 46433 4 | 10:19.09 | 2:40.74 | 46434 | 58507 5 | 13:00.08 | 2:54.69 | 58508 | 71626 6 | 15:55.02 | 3:24.38 | 71627 | 86964 7 | 19:19.40 | 2:40.56 | 86965 | 99020 8 | 22:00.21 | 3:27.37 | 99021 | 114582 9 | 25:27.58 | 2:49.07 | 114583 | 127264 10 | 28:16.65 | 3:05.58 | 127265 | 141197

Track 1

Filename C:\Rips\01 - Goodbye Holly.wav

Pre-gap length 0:00:02.00

Peak level 100.0 % Extraction speed 1.8 X Track quality 100.0 % Test CRC 3B75A902 Copy CRC 3B75A902 Track not present in AccurateRip database Copy OK

Track 2

Filename C:\Rips\02 - There's Gonna Be A Storm.wav

Peak level 100.0 % Extraction speed 2.1 X Track quality 100.0 % Test CRC 78E2D7E3 Copy CRC 78E2D7E3 Track not present in AccurateRip database Copy OK

Track 3

Filename C:\Rips\03 - Sing Little Bird Sing.wav

Peak level 92.7 % Extraction speed 2.2 X Track quality 100.0 % Test CRC C4DE5404 Copy CRC C4DE5404 Track not present in AccurateRip database Copy OK

Track 4

Filename C:\Rips\04 - Nice To See You.wav

Peak level 99.9 % Extraction speed 2.2 X Track quality 100.0 % Test CRC C86916F4 Copy CRC C86916F4 Track not present in AccurateRip database Copy OK

Track 5

Filename C:\Rips\05 - Give The Man A Hand.wav

Peak level 100.0 % Extraction speed 2.3 X Track quality 100.0 % Test CRC B93FE355 Copy CRC B93FE355 Track not present in AccurateRip database Copy OK

Track 6

Filename C:\Rips\06 - Bryant Hotel.wav

Pre-gap length 0:00:01.46

Peak level 95.8 % Extraction speed 2.5 X Track quality 100.0 % Test CRC DCC51F85 Copy CRC DCC51F85 Track not present in AccurateRip database Copy OK

Track 7

Filename C:\Rips\07 - Desiree.wav

Pre-gap length 0:00:01.01

Peak level 96.6 % Extraction speed 1.9 X Track quality 99.9 % Test CRC 4D2A907A Copy CRC 4D2A907A Track not present in AccurateRip database Copy OK

Track 8

Filename C:\Rips\08 - Dark Is The Bark.wav

Peak level 99.9 % Extraction speed 2.7 X Track quality 100.0 % Test CRC 71A48E98 Copy CRC 71A48E98 Track not present in AccurateRip database Copy OK

Track 9

Filename C:\Rips\09 - In The Morning Light.wav

Peak level 99.9 % Extraction speed 2.7 X Track quality 100.0 % Test CRC DD940FF2 Copy CRC DD940FF2 Track not present in AccurateRip database Copy OK

Track 10

Filename C:\Rips\10 - My Friend Today.wav

Peak level 99.9 % Extraction speed 2.8 X Track quality 100.0 % Test CRC 085E4C9E Copy CRC 085E4C9E Track not present in AccurateRip database Copy OK

None of the tracks are present in the AccurateRip database

No errors occurred

End of status report
Источник: what.cd

Трекер:  [ 08-Май-2012 07:19 ]

  

Скачать .torrent

Размер .torrent файла 16 KB


Размер: 191 MB
Хэш (hash) релиза: f8c9e09549dbc9bda829dab644c258dc298535b3

Еще никто не оставлял запись к записи скачать торрент The Left Banke - The Left Banke Too - 1968 ALAC, lossless . Будь первым!

!Обратная связь