Скачать через торрент Before The Dawn - Дискография - 2003-2012 ALAC, lossless бесплатно русская версия torrent активатор

Если у вас наблюдаются проблемы со скриншотами, переходом по ссылками, скачиванием торрентов - проблемы в блокировщике рекламы AdBlock. #хорошегоДня!


Статистика раздачи
Размер:  2.45 GB   |    Зарегистрирован:  5 лет 5 месяцев   |    .torrent скачан:  71 раз   |   
Раздают:  1  
   
Загрузка...
 
Автор Сообщение

L




Страна: Finland ll Год: 2003-2012 ll Жанр: Melodic Death Metal ll Продолжительность: 5,6 часа ll Тексты: вшиты ll Обложки: вшиты
Кодек: ALAC ll Программа-риповщик : foobar2000 + iTunes (lossless) ll Битрейт: lossless
О группе: Финская англоязычная метал-группа. Название группы переводится с английского, как "Перед Рассветом". Группа была основана в 1999 году Туомасом Саукконеном. Поскольку Before the Dawn долгое время выпускали альбомы на лейбле Locomotive Music, который специализировался на готической музыке, группе был дан жанр готик-метал. Самый первый мини-альбом действительно был представителем этого жанра. Большинство журналов, таких как Stalker Magazine, писали, что Before the Dawn - мелодичный дэт-метал или мелодичный дарк-метал. Сам Туомас охарактеризовал жанр группы, как Melancholic Scandinavian Metal.
01. Intro
02. Unbreakable
03. Seraphim
04. My Darkness
05. Take My Pain
06. Father And Son
07. Alone
08. Angel
09. Undone
10. Human Hatred
11. 4.16 Am
  
Отчёт EAC об извлечении, выполненном 4. декабря 2008, 20:40 для диска:Before The Dawn / My Darkness

Дисковод: PLEXTOR DVDR PX-820SA Adapter: 5 ID: 0Режим чтения: Точный (C2: нет, Точный поток: да, Отключение кэша: да)Коррекция смещения при чтении: 48Экстрачтение областей Lead-in и Lead-out : Нет

Выходной формат: Внутренние WAV-операции 44.100 Гц; 16 бит; стерео

Другие параметры: Заполнение пропущенных сэмплов тишиной : Да Удаление блоков с тишиной в начале и конце : Нет Установленный внешний ASPI-интерфейс

Статус диапазона и ошибкиВыбранный диапазон Имя файла E:\Before The Dawn - 2003 - My Darkness\Before The Dawn - 2003 - My Darkness.wav

Пиковый уровень 98.8 % Качество диапазона 100.0 % CRC F3AABD2A Копирование... OK

Ошибок не произошло

Конец отчёта
01. Heaven
02. Seed
03. Dreamer
04. Fade Away
05. Crush
06. Into You
07. My Room
08. The Black
09. Vengeance
10. Hiding
  
Отчёт EAC об извлечении, выполненном 4. декабря 2008, 20:26 для диска:Before The Dawn / 4:17 am

Дисковод: PLEXTOR DVDR PX-820SA Adapter: 5 ID: 0Режим чтения: Точный (C2: нет, Точный поток: да, Отключение кэша: да)Коррекция смещения при чтении: 48Экстрачтение областей Lead-in и Lead-out : Нет

Выходной формат: Внутренние WAV-операции 44.100 Гц; 16 бит; стерео

Другие параметры: Заполнение пропущенных сэмплов тишиной : Да Удаление блоков с тишиной в начале и конце : Нет Установленный внешний ASPI-интерфейс

Статус диапазона и ошибкиВыбранный диапазон Имя файла E:\Before The Dawn - 2004 - 417 am\Before The Dawn - 2004 - 417 am.wav

Пиковый уровень 97.7 % Качество диапазона 100.0 % CRC 5276E32C Копирование... OK

Ошибок не произошло

Конец отчёта
01. Disappear
02. Repentance
03. Fade Away
04. Scar
05. Angels Tombstone
06. Black Dawn
07. Enemy
08. Stormbringer
09. Ghost Town
10. ...Nowhere
  
EAC extraction logfile from 9. June 2006, 13:52 for CDBefore The Dawn / The Ghost

Used drive : IDE-DVD DROM6216 Adapter: 2 ID: 1Read mode : Secure with NO C2, accurate stream, disable cacheRead offset correction : 738Overread into Lead-In and Lead-Out : No

Used output format : Internal WAV Routines 44.100 Hz; 16 Bit; Stereo

Other options : Fill up missing offset samples with silence : Yes Delete leading and trailing silent blocks : No Native Win32 interface for Win NT & 2000

Range status and errorsSelected range Filename D:\Temp\Before_The_Dawn-The_Ghost-2006-FLAC-dyrka\Before_The_Dawn-The_Ghost-2006-FLAC-dyrka.wav

Peak level 97.7 % Range quality 99.9 % CRC D7121B31 Copy OK

No errors occured

End of status report
01. Wrath
02. Faithless
03. Fear Me
04. Eternal
05. Mornings Sun
06. Deadsong
07. Guardian
08. Star Of Fire
09. Reign Of Fire
10. ...
11. Gehenna
12. The Bitter End
  
EAC extraction logfile from 3. December 2008, 18:41 for CDBefore The Dawn / Deadlight (Limited Edition)

Used drive : ATAPI DVD A DH20A4P Adapter: 3 ID: 0Read mode : Secure with NO C2, accurate stream, disable cacheRead offset correction : 6Overread into Lead-In and Lead-Out : No

Used output format : C:\Program Files\Exact Audio Copy 0.9b4 + APE & FLAC Encoders\MAC.EXE (Monkey's Audio Lossless Encoder) High Lossless Compression

Other options : Fill up missing offset samples with silence : Yes Delete leading and trailing silent blocks : No Installed external ASPI interface

Range status and errorsSelected range Filename C:\Documents and Settings\Ilian\My Documents\Downloads\CDImage.wav

Peak level 97.7 % Range quality 100.0 % CRC D473A310 Copy OK

No errors occured

End of status report
01. Dying Sun
02. Exile
03. Silence
04. Dead Reflection
05. Hide Me
06. Fabrication
07. Savior
08. Monsters
09. Cold
10. Last Song
11. Ignite (Bonus Track)
  
EAC extraction logfile from 3. December 2008, 18:18 for CDBefore The Dawn / Soundscape Of Silence

Used drive : ATAPI DVD A DH20A4P Adapter: 3 ID: 0Read mode : Secure with NO C2, accurate stream, disable cacheRead offset correction : 6Overread into Lead-In and Lead-Out : No

Used output format : C:\Program Files\Exact Audio Copy 0.9b4 + APE & FLAC Encoders\MAC.EXE (Monkey's Audio Lossless Encoder) High Lossless Compression

Other options : Fill up missing offset samples with silence : Yes Delete leading and trailing silent blocks : No Installed external ASPI interface

Range status and errorsSelected range Filename C:\Documents and Settings\Ilian\My Documents\Downloads\CDImage.wav

Peak level 100.0 % Range quality 100.0 % CRC 46940C0D Copy OK

No errors occured

End of status report
01. Decade Of Darkness
02. End Of Days
03. Insomnia
04. Painless
05. Painless (Live)
06. Deadsong (Live)
07. Deadsong (Symphony Version)
  
Exact Audio Copy V0.99 prebeta 5 from 4. May 2009

EAC extraction logfile from 16. February 2011, 0:19

Before the Dawn / Decade of Darkness

Used drive : ASUS DRW-1814BLT Adapter: 1 ID: 0

Read mode : SecureUtilize accurate stream : YesDefeat audio cache : YesMake use of C2 pointers : No

Read offset correction : 6Overread into Lead-In and Lead-Out : NoFill up missing offset samples with silence : YesDelete leading and trailing silent blocks : NoNull samples used in CRC calculations : YesUsed interface : Installed external ASPI interface

Used output format : Monkey's Audio Lossless EncoderSelected bitrate : High Lossless CompressionQuality : HighAdd ID3 tag : YesCommand line compressor : C:\Program Files\Monkey's Audio\MAC.exe

TOC of the extracted CD

Track | Start | Length | Start sector | End sector --------------------------------------------------------- 1 | 0:00.00 | 4:20.54 | 0 | 19553 2 | 4:20.54 | 3:57.32 | 19554 | 37360 3 | 8:18.11 | 3:25.20 | 37361 | 52755 4 | 11:43.31 | 2:51.54 | 52756 | 65634 5 | 14:35.10 | 3:11.43 | 65635 | 80002 6 | 17:46.53 | 4:02.49 | 80003 | 98201 7 | 21:49.27 | 4:24.19 | 98202 | 118020

Range status and errors

Selected range

Filename J:\MUSIC\Before the Dawn - Decade of Darkness.wav

Peak level 99.4 % Range quality 100.0 % Test CRC C11987F6 Copy CRC C11987F6 Copy OK

No errors occurred

AccurateRip summary

Track 1 cannot be verified as accurate (confidence 1) [C30EA914], AccurateRip returned [98AEF068]Track 2 cannot be verified as accurate (confidence 1) [63CFC616], AccurateRip returned [E5653640]Track 3 cannot be verified as accurate (confidence 1) [A6D37E38], AccurateRip returned [D4C2A7B4]Track 4 cannot be verified as accurate (confidence 1) [DE879219], AccurateRip returned [9F5316CB]Track 5 cannot be verified as accurate (confidence 1) [97ACCA21], AccurateRip returned [88A86F6D]Track 6 cannot be verified as accurate (confidence 1) [59093814], AccurateRip returned [D650233C]Track 7 cannot be verified as accurate (confidence 1) [B4C5135D], AccurateRip returned [F43F79EA]

No tracks could be verified as accurateYou may have a different pressing from the one(s) in the database

End of status report
01. The First Snow
02. Winter Within
03. Deathstar
04. Remembrance
05. Unbroken
06. Judgement
07. The Wake
08. Sanctuary
09. Butterfly Effect
10. Wreith
11. Infinity (Demo 1998)
12. My Room (Acoustic Bonus)
13. Unbreakable (Bonus Live Track)
14. The Black (Bonus Live Track)
  
Exact Audio Copy V0.99 prebeta 5 from 4. May 2009

EAC extraction logfile from 8. March 2011, 11:43

Before The Dawn / Deathstar Rising Ltd. Ed.

Used drive : _NEC DVD_RW ND-3540A Adapter: 0 ID: 0

Read mode : SecureUtilize accurate stream : YesDefeat audio cache : YesMake use of C2 pointers : No

Read offset correction : 48Overread into Lead-In and Lead-Out : NoFill up missing offset samples with silence : YesDelete leading and trailing silent blocks : NoNull samples used in CRC calculations : YesUsed interface : Native Win32 interface for Win NT & 2000

Used output format : User Defined EncoderSelected bitrate : 40 kBit/sQuality : HighAdd ID3 tag : NoCommand line compressor : C:\Program Files\Exact Audio Copy\FLAC.EXEAdditional command line options : -6 -V %s

TOC of the extracted CD

Track | Start | Length | Start sector | End sector --------------------------------------------------------- 1 | 0:00.00 | 1:20.24 | 0 | 6023 2 | 1:20.24 | 4:32.04 | 6024 | 26427 3 | 5:52.28 | 3:31.04 | 26428 | 42256 4 | 9:23.32 | 3:38.47 | 42257 | 58653 5 | 13:02.04 | 4:39.73 | 58654 | 79651 6 | 17:42.02 | 4:20.27 | 79652 | 99178 7 | 22:02.29 | 5:07.61 | 99179 | 122264 8 | 27:10.15 | 4:52.33 | 122265 | 144197 9 | 32:02.48 | 3:53.67 | 144198 | 161739 10 | 35:56.40 | 5:16.60 | 161740 | 185499 11 | 41:13.25 | 3:02.11 | 185500 | 199160 12 | 44:15.36 | 4:27.59 | 199161 | 219244 13 | 48:43.20 | 3:18.45 | 219245 | 234139 14 | 52:01.65 | 4:25.06 | 234140 | 254020

Range status and errors

Selected range

Filename E:\BEFORE THE DAWN [2011] [CD] Deathstar Rising (Ltd. Ed. 4 Bonus) [EAC-FLAC] by snecy [MeTaLMaDNeSS.TeaM]\Before The Dawn - Deathstar Rising Limited Edition.wav

Peak level 100.0 % Range quality 100.0 % Copy CRC 27CA5D20 Copy OK

No errors occurred

AccurateRip summary

Track 1 not present in databaseTrack 2 not present in databaseTrack 3 not present in databaseTrack 4 not present in databaseTrack 5 not present in databaseTrack 6 not present in databaseTrack 7 not present in databaseTrack 8 not present in databaseTrack 9 not present in databaseTrack 10 not present in databaseTrack 11 not present in databaseTrack 12 not present in databaseTrack 13 not present in databaseTrack 14 not present in database

None of the tracks are present in the AccurateRip database

End of status report
01. Exordium
02. Pitch-Black Universe
03. Phoenix Rising
04. Cross To Bear
05. Throne Of Ice
06. Perfect Storm
07. Fallen World
08. Eclipse
09. Closure
10. Unbreakable (2012 Version)
11. Deliverance
  
Exact Audio Copy V1.0 beta 3 from 29. August 2011

EAC extraction logfile from 26. April 2012, 15:16

Before The Dawn / Rise Of The Phoenix

Used drive : Optiarc DVD RW AD-7260S Adapter: 2 ID: 0

Read mode : SecureUtilize accurate stream : YesDefeat audio cache : YesMake use of C2 pointers : No

Read offset correction : 48Overread into Lead-In and Lead-Out : NoFill up missing offset samples with silence : YesDelete leading and trailing silent blocks : NoNull samples used in CRC calculations : YesUsed interface : Native Win32 interface for Win NT & 2000Gap handling : Appended to previous track

Used output format : User Defined EncoderSelected bitrate : 1024 kBit/sQuality : HighAdd ID3 tag : NoCommand line compressor : G:\Program (x86) G\Exact Audio Copy\Flac\flac.exeAdditional command line options : -V -8 -T "artist=%artist%" -T "title=%title%" -T "album=%albumtitle%" -T "date=%year%" -T "tracknumber=%tracknr%" -T "genre=%genre%" %source%

TOC of the extracted CD

Track | Start | Length | Start sector | End sector --------------------------------------------------------- 1 | 0:00.00 | 1:27.61 | 0 | 6585 2 | 1:27.61 | 4:43.69 | 6586 | 27879 3 | 6:11.55 | 4:42.74 | 27880 | 49103 4 | 10:54.54 | 3:29.45 | 49104 | 64823 5 | 14:24.24 | 6:31.19 | 64824 | 94167 6 | 20:55.43 | 4:42.54 | 94168 | 115371 7 | 25:38.22 | 4:22.03 | 115372 | 135024 8 | 30:00.25 | 5:39.20 | 135025 | 160469 9 | 35:39.45 | 3:44.46 | 160470 | 177315 10 | 39:24.16 | 3:17.73 | 177316 | 192163 11 | 42:42.14 | 3:25.49 | 192164 | 207587

Track 1

Filename J:\MUSiC RiPS\01-Before The Dawn-Exordium.wav

Pre-gap length 0:00:02.00

Peak level 84.1 % Extraction speed 1.9 X Track quality 100.0 % Test CRC 5B9CC1BA Copy CRC 5B9CC1BA Track not present in AccurateRip database Copy OK

Track 2

Filename J:\MUSiC RiPS\02-Before The Dawn-Pitch-Black Universe.wav

Peak level 100.0 % Extraction speed 2.6 X Track quality 100.0 % Test CRC 573A8F82 Copy CRC 573A8F82 Track not present in AccurateRip database Copy OK

Track 3

Filename J:\MUSiC RiPS\03-Before The Dawn-Phoenix Rising.wav

Peak level 100.0 % Extraction speed 2.9 X Track quality 100.0 % Test CRC 890410CF Copy CRC 890410CF Track not present in AccurateRip database Copy OK

Track 4

Filename J:\MUSiC RiPS\04-Before The Dawn-Cross To Bear.wav

Peak level 98.2 % Extraction speed 3.0 X Track quality 100.0 % Test CRC D5C4CF71 Copy CRC D5C4CF71 Track not present in AccurateRip database Copy OK

Track 5

Filename J:\MUSiC RiPS\05-Before The Dawn-Throne Of Ice.wav

Peak level 99.4 % Extraction speed 3.5 X Track quality 100.0 % Test CRC 5892E670 Copy CRC 5892E670 Track not present in AccurateRip database Copy OK

Track 6

Filename J:\MUSiC RiPS\06-Before The Dawn-Perfect Storm.wav

Peak level 100.0 % Extraction speed 3.6 X Track quality 100.0 % Test CRC E6D8FA7F Copy CRC E6D8FA7F Track not present in AccurateRip database Copy OK

Track 7

Filename J:\MUSiC RiPS\07-Before The Dawn-Fallen World.wav

Peak level 98.1 % Extraction speed 3.8 X Track quality 100.0 % Test CRC EC97C5C8 Copy CRC EC97C5C8 Track not present in AccurateRip database Copy OK

Track 8

Filename J:\MUSiC RiPS\08-Before The Dawn-Eclipse.wav

Peak level 97.6 % Extraction speed 3.8 X Track quality 99.9 % Test CRC E51E25D8 Copy CRC E51E25D8 Track not present in AccurateRip database Copy OK

Track 9

Filename J:\MUSiC RiPS\09-Before The Dawn-Closure.wav

Peak level 97.8 % Extraction speed 4.1 X Track quality 100.0 % Test CRC 00381B3D Copy CRC 00381B3D Track not present in AccurateRip database Copy OK

Track 10

Filename J:\MUSiC RiPS\10-Before The Dawn-Unbreakable [2012 Version - Bonus Track].wav

Pre-gap length 0:00:01.37

Peak level 98.8 % Extraction speed 4.2 X Track quality 100.0 % Test CRC 0B1F2D83 Copy CRC 0B1F2D83 Track not present in AccurateRip database Copy OK

Track 11

Filename J:\MUSiC RiPS\11-Before The Dawn-Starless Tranquility [Bonus Track].wav

Pre-gap length 0:00:04.77

Peak level 76.1 % Extraction speed 4.4 X Track quality 100.0 % Test CRC D7C423D8 Copy CRC D7C423D8 Track not present in AccurateRip database Copy OK

None of the tracks are present in the AccurateRip database

No errors occurred

End of status report

==== Log checksum BEEE2671233DE153ED6430B6C366178372B8E8F84FFCBDA4109346489466C353 ====


Трекер:  [ 08-Май-2012 07:18 ]

  

Скачать .torrent

Размер .torrent файла 19 KB


Размер: 2.45 GB
Хэш (hash) релиза: fcff52429d5390780ec9004f6f4f78bf9459e864

Еще никто не оставлял запись к записи скачать торрент Before The Dawn - Дискография - 2003-2012 ALAC, lossless . Будь первым!

!Обратная связь