Скачать через торрент Enter Shikari - Arguing With Thermometers бесплатно русская версия torrent активатор

Если у вас наблюдаются проблемы со скриншотами, переходом по ссылками, скачиванием торрентов - проблемы в блокировщике рекламы AdBlock. #хорошегоДня!


Статистика раздачи
Размер:  85 MB   |    Зарегистрирован:  5 лет 5 месяцев   |    .torrent скачан:  35 раз   |   
Раздают:  1  
   
Загрузка...
 
Автор Сообщение

L


Enter Shikari / Arguing With Thermometers (Remixes) - EP

Жанр: Rock
Страна: UK
Год издания: 2012
Издатель (лейбл): ℗ 2011 ENTER SHIKARI LTD
Композитор: Enter Shikari
Аудио кодек: AAC
Тип рипа: tracks
Битрейт аудио: 256 kbps
Продолжительность: 21:10
Источник: http://itunes.apple.com/gb/album/arguing-thermometers-remixes/id505245655
Тексты: отсутствуют
Наличие сканов в содержимом раздачи: нет

Треклист:
1. Arguing With Thermometers (Calvertron Remix)
2. Arguing With Thermometers (Taz Buckfaster Remix)
3. Arguing With Thermometers (Goth-Trad Remix)
4. Arguing With Thermometers
5. Arguing With Thermometers (Video)
Параметры видео

Качество: WEB-DL
Продолжительность: 03:52
Формат: MPEG-4 (контейнер m4v)
Видео: H.264, 640 x 360 px (16:9), 25.000 fps, ~1509 kbps, без анаморфа
Аудио: Английский (AAC Stereo, 256 Кбит/сек, 44,1 КГц)
Общее
Полное имя : C:\Users\Ромашка\Desktop\База музыки с блога\Enter Shikari\Enter Shikari - Arguing With Thermometers (Remixes) - EP\05 Arguing With Thermometers.m4v
Формат : MPEG-4
Идентификатор кодека : M4V
Размер файла : 49,8 Мбайт
Продолжительность : 3 м. 52 с.
Общий поток : 1798 Кбит/сек
Название фильма : Arguing With Thermometers
Альбом : Arguing With Thermometers (Remixes) - EP
Альбом/Исполнитель : Enter Shikari
Часть/Положение : 1
Часть/Всего : 1
Трек/Положение : 5
Трек/Всего : 5
Исполнитель : Enter Shikari
Жанр : Rock
Дата записи : UTC 2012-03-05 08:00:00
Дата кодирования : UTC 2012-02-23 20:49:34
Дата пометки : UTC 2012-02-23 20:54:10
Библиотека кодирования : Apple QuickTime
Обложка : Yes
apID : <a href="mailto:marcelbiervliet@gmail.com" class="postLink">marcelbiervliet@gmail.com</a>
cnID : 505245849
rtng : 1
atID : 179865613
plID : 505245655
geID : 1621
sfID : 143452
stik : 6
purd : 2012-03-15 05:46:40
xid : PlayItAgainSam:isrc:GBW671200103
flvr : 6:640x480LC-256

Видео
Идентификатор : 1
Формат : AVC
Формат/Информация : Advanced Video Codec
Профиль формата : <a href="mailto:Baseline@L3.0" class="postLink">Baseline@L3.0</a>
Параметр CABAC формата : Нет
Параметр ReFrames формата : 1 кадр
Идентификатор кодека : avc1
Идентификатор кодека/Информация : Advanced Video Coding
Продолжительность : 3 м. 52 с.
Битрейт : 1509 Кбит/сек
Ширина : 640 пикселей
Высота : 360 пикселей
Соотношение сторон : 16:9
Режим частоты кадров : Постоянный
Частота кадров : 25,000 кадров/сек
Цветовое пространство : YUV
Субдискретизация насыщенности : 4:2:0
Битовая глубина : 8 бит
Тип развёртки : Прогрессивная
Бит/(Пиксели*Кадры) : 0.262
Размер потока : 41,8 Мбайт (84%)
Язык : English
Дата кодирования : UTC 2012-02-23 20:54:06
Дата пометки : UTC 2012-02-23 20:54:10
Основные цвета : BT.601-6 525, BT.1358 525, BT.1700 NTSC, SMPTE 170M
Характеристики трансфера : BT.709-5, BT.1361
Коэффициенты матрицы : BT.601-6 525, BT.1358 525, BT.1700 NTSC, SMPTE 170M

Аудио
Идентификатор : 2
Формат : AAC
Формат/Информация : Advanced Audio Codec
Профиль формата : LC
Идентификатор кодека : 40
Продолжительность : 3 м. 52 с.
Продолжительность оригинала : 3 м. 52 с.
Вид битрейта : Постоянный
Битрейт : 256 Кбит/сек
Каналы : 2 канала
Расположение каналов : Front: L R
Частота : 44,1 КГц
Метод сжатия : С потерями
Размер потока : 6,83 Мбайт (14%)
Размер потока оригинала : 6,83 Мбайт (14%)
Язык : English
Дата кодирования : UTC 2012-02-23 20:54:06
Дата пометки : UTC 2012-02-23 20:54:10

Меню
Идентификатор : 3
Язык : English
Дата кодирования : UTC 2012-02-23 20:54:10
Дата пометки : UTC 2012-02-23 20:54:10


Трекер:  [ 09-Май-2012 07:16 ]

  

Скачать .torrent

Размер .torrent файла 14 KB


Размер: 85 MB
Хэш (hash) релиза: d70394ef4da70ea5a7ed74b7e3ed29539417a516

Еще никто не оставлял запись к записи скачать торрент Enter Shikari - Arguing With Thermometers . Будь первым!

!Обратная связь