Скачать через торрент Bring Me the Horizon - Suicide Season бесплатно русская версия torrent активатор

Если у вас наблюдаются проблемы со скриншотами, переходом по ссылками, скачиванием торрентов - проблемы в блокировщике рекламы AdBlock. #хорошегоДня!


Статистика раздачи
Размер:  306 MB   |    Зарегистрирован:  5 лет 5 месяцев   |    .torrent скачан:  40 раз   |   
Раздают:  1  
   
Загрузка...
 
Автор Сообщение

L


Bring Me the Horizon / Suicide Season (Deluxe)

Жанр: Alternative
Страна: UK
Год издания: 2010
Издатель (лейбл): ℗ 2010 Visible Noise, Ltd., Under Exclusive License To Epitaph.
Аудио кодек: AAC
Тип рипа: tracks
Битрейт аудио: 256 kbps
Продолжительность: 01:52:12
Источник: http://itunes.apple.com/us/album/suicide-season-deluxe/id365021368
Тексты: отсутствуют
Наличие сканов в содержимом раздачи: нет

Треклист:
1. The Comedown
2. Chelsea Smile
3. It Was Written In Blood
4. Death Breath
5. Football Season Is Over
6. Sleep With One Eye Open
7. Diamonds Aren't Forever
8. The Sadness Will Never End
9. No Need for Introductions, I've Read About Girls Like You On the Backs of Toilet Doors
10. Suicide Season
11. The Comedown (Robotsonics)
12. Chelsea Smile (Kc Blitz)
13. It Was Written In Blood (L'amour la Morgue)
14. Death Breath (Toxic Avenger)
15. Football Season Is Over (After the Night)
16. Sleep With One Eye Open (Tek-One)
17. Diamonds Aren't Forever (I Haunt Wizards)
18. The Sadness Will Never End (Skrillex)
19. No Need for Introductions, I've Read About Girls Like You On the Backs of Toilet Doors (Benjamin Weinman)
20. Suicide Season (The Secret Handshake)
21. Football Season Is Over (Utah Saints)
22. Sleep With One Eye Open (M Shawn Crahan)
23. Chelsea Smile (Travis Mccoy)
24. Suicide Season (Outcry Collective)
25. Chelsea Smile (Live In Mexico City) [Video]
Параметры видео

Качество: WEB-DL
Продолжительность: 07:08
Формат: MPEG-4 (контейнер m4v)
Видео: H.264, 640 x 352 px (16:9), 25.000 fps, ~1570 kbps, без анаморфа
Аудио: Английский (AAC Stereo, 256 Кбит/сек, 44,1 КГц)
Общее
Полное имя : C:\Users\Ромашка\Desktop\База музыки с блога\Bring Me the Horizon\Bring Me the Horizon - Suicide Season (Deluxe)\25 Chelsea Smile (Live In Mexico Cit.m4v
Формат : MPEG-4
Идентификатор кодека : M4V
Размер файла : 94,3 Мбайт
Продолжительность : 7 м. 8 с.
Общий поток : 1845 Кбит/сек
Название фильма : Chelsea Smile (Live In Mexico City)
Альбом : Suicide Season (Deluxe)
Альбом/Исполнитель : Bring Me the Horizon
Часть/Положение : 1
Часть/Всего : 1
Трек/Положение : 25
Трек/Всего : 25
Исполнитель : Bring Me the Horizon
Жанр : Alternative
Дата записи : UTC 2010-04-12 07:00:00
Дата кодирования : UTC 2010-03-29 18:09:17
Дата пометки : UTC 2011-04-30 18:41:51
Библиотека кодирования : Apple QuickTime
Правообладатель : ℗ 2010 Visible Noise, Ltd., Under Exclusive License To Epitaph.
apID : <a href="mailto:molzryan@yahoo.com" class="postLink">molzryan@yahoo.com</a>
cnID : 365021768
rtng : 0
atID : 121043936
plID : 365021368
geID : 1620
sfID : 143441
akID : 0
stik : 6
purd : 2011-04-30 10:48:34
xid : Warner:isrc:USEP61008001

Видео
Идентификатор : 1
Формат : AVC
Формат/Информация : Advanced Video Codec
Профиль формата : <a href="mailto:Baseline@L3.0" class="postLink">Baseline@L3.0</a>
Параметр CABAC формата : Нет
Параметр ReFrames формата : 1 кадр
Идентификатор кодека : avc1
Идентификатор кодека/Информация : Advanced Video Coding
Продолжительность : 7 м. 8 с.
Битрейт : 1570 Кбит/сек
Ширина : 640 пикселей
Высота : 352 пикселя
Соотношение сторон : 16:9
Режим частоты кадров : Постоянный
Частота кадров : 29,970 кадров/сек
Цветовое пространство : YUV
Субдискретизация насыщенности : 4:2:0
Битовая глубина : 8 бит
Тип развёртки : Прогрессивная
Бит/(Пиксели*Кадры) : 0.233
Размер потока : 80,3 Мбайт (85%)
Язык : English
Дата кодирования : UTC 2010-03-29 18:23:47
Дата пометки : UTC 2010-03-29 18:23:56
Основные цвета : BT.601-6 525, BT.1358 525, BT.1700 NTSC, SMPTE 170M
Характеристики трансфера : BT.709-5, BT.1361
Коэффициенты матрицы : BT.601-6 525, BT.1358 525, BT.1700 NTSC, SMPTE 170M

Аудио
Идентификатор : 2
Формат : AAC
Формат/Информация : Advanced Audio Codec
Профиль формата : LC
Идентификатор кодека : 40
Продолжительность : 7 м. 8 с.
Продолжительность оригинала : 7 м. 8 с.
Вид битрейта : Постоянный
Битрейт : 256 Кбит/сек
Каналы : 2 канала
Расположение каналов : Front: L R
Частота : 44,1 КГц
Метод сжатия : С потерями
Размер потока : 12,8 Мбайт (14%)
Размер потока оригинала : 12,8 Мбайт (14%)
Язык : English
Дата кодирования : UTC 2010-03-29 18:23:47
Дата пометки : UTC 2011-04-30 18:41:51

Меню
Идентификатор : 3
Язык : English
Дата кодирования : UTC 2010-03-29 18:23:55
Дата пометки : UTC 2010-03-29 18:23:56

Bring Me the Horizon (BMTH) — английская метал-группа из Шеффилда, Йоркшир, основанная в 2003 году пятью участниками других групп. Они играли стиль музыки, который является смесью дэт-метала и металкора (так же известный как дэткор) на своём первом альбоме. Но они приняли более эклектичный стиль на последнем альбоме.
Suicide Season — второй студийный альбом английской металкор-группы Bring Me the Horizon. В Европе и Англии альбом вышел 29 сентября 2008 года при поддержке лейбла Visible Noise, а в США и Канаде - 18 ноября 2008 года при поддержке Epitaph. Альбом на первой же неделе поднялся на 47-ю позицию Британского чарта, 28-ю - Австралийского, 107-ю - Billboard Top 200. Количество проданных копий за первую неделю продаж составило 6,621. 2 ноября 2009 года вышел сборник ремиксов на композиции из «Suicide Season» под названием Suicide Season: Cut Up.
Текущий состав
Оливер Сайкс — вокал
Ли Малиа — гитара
Мэтт Кин — бас-гитара
Мэтт Николс — ударные
Джона Вайнхофен — гитара

Бывший участник
Кёртис Уард — гитара (2004—2009)


Трекер:  [ 08-Май-2012 16:09 ]

  

Скачать .torrent

Размер .torrent файла 14 KB


Размер: 306 MB
Хэш (hash) релиза: 6498d2b2d41138d654deb422500aff1443021a89

Еще никто не оставлял запись к записи скачать торрент Bring Me the Horizon - Suicide Season . Будь первым!

!Обратная связь