Скачать через торрент Keane - Strangeland бесплатно русская версия torrent активатор

Если у вас наблюдаются проблемы со скриншотами, переходом по ссылками, скачиванием торрентов - проблемы в блокировщике рекламы AdBlock. #хорошегоДня!


Статистика раздачи
Размер:  423 MB   |    Зарегистрирован:  5 лет 5 месяцев   |    .torrent скачан:  36 раз   |   
Раздают:  1  
   
Загрузка...
 
Автор Сообщение

L


Keane / Strangeland (Deluxe Version)

Жанр: Alternative
Страна: UK
Год издания: 2012
Издатель (лейбл): ℗ 2012 Universal Island Records, a division of Universal Music Operations Limited
Композитор: Tim Rice-Oxley, Tom Chaplin, Richard Hughes, etc.
Аудио кодек: AAC
Тип рипа: tracks
Битрейт аудио: 256 kbps
Продолжительность: 01:24:31
Источник: http://itunes.apple.com/de/album/strangeland-deluxe-version/id512694566
Тексты: отсутствуют
Наличие сканов в содержимом раздачи: нет

Треклист:
1. You Are Young
2. Silenced By the Night
3. Disconnected
4. Watch How You Go
5. Sovereign Light Café
6. On the Road
7. The Starting Line
8. Black Rain
9. Neon River
10. Day Will Come
11. In Your Own Time
12. Sea Fog
13. Strangeland
14. Run With Me
15. The Boys
16. It's Not True
Параметры видео:
Качество: WEB-DL
Продолжительность: 00:03:19
Формат: MPEG-4 (контейнер m4v)
Видео: H.264, 640 x 359 px (16:9), 23.976 fps, ~1454 kbps, анаморф
Аудио: Английский (AAC Stereo, 256 Кбит/сек, 44,1 КГц)
Навигация по главам: английские названия, изображения
Общее
Полное имя : C:\Users\Ромашка\Desktop\База музыки с блога\Keane\Keane - Strangeland (Deluxe Version)\17 - Keane - Silenced By the Night.m4v
Формат : MPEG-4
Идентификатор кодека : M4V
Размер файла : 41,6 Мбайт
Продолжительность : 3 м. 19 с.
Общий поток : 1751 Кбит/сек
Название фильма : Silenced By the Night
Альбом : Strangeland (Deluxe Version)
Альбом/Исполнитель : Keane
Трек/Положение : 17
Трек/Всего : 0
Исполнитель : Keane
Жанр : Alternative
Дата записи : UTC 2012-05-04 07:00:00
Дата кодирования : UTC 2012-03-21 21:28:45
Дата пометки : UTC 2012-03-21 21:33:30
Библиотека кодирования : Apple QuickTime
Правообладатель : ℗ 2012 Universal Island Records, a division of Universal Music Operations Limited
Обложка : Yes
Примечание : (Acoustic)
apID : <a href="mailto:kevinde@yeah.net" class="postLink">kevinde@yeah.net</a>
cnID : 512694683
rtng : 0
atID : 442906455
plID : 512694566
geID : 1620
sfID : 143443
stik : 6
purd : 2012-05-04 00:08:41
sonm : Silenced By the Night
xid : Universal:isrc:GBUV71200347
flvr : 6:640x480LC-256

Видео
Идентификатор : 1
Формат : AVC
Формат/Информация : Advanced Video Codec
Профиль формата : <a href="mailto:Baseline@L3.0" class="postLink">Baseline@L3.0</a>
Параметр CABAC формата : Нет
Параметр ReFrames формата : 1 кадр
Идентификатор кодека : avc1
Идентификатор кодека/Информация : Advanced Video Coding
Продолжительность : 3 м. 19 с.
Битрейт : 1454 Кбит/сек
Ширина : 640 пикселей
Высота : 359 пикселей
Высота оригинала : 360 пикселей
Соотношение сторон : 16:9
Соотношение сторон в оригинале : 16:9
Режим частоты кадров : Постоянный
Частота кадров : 25,000 кадров/сек
Цветовое пространство : YUV
Субдискретизация насыщенности : 4:2:0
Битовая глубина : 8 бит
Тип развёртки : Прогрессивная
Бит/(Пиксели*Кадры) : 0.253
Размер потока : 34,6 Мбайт (83%)
Язык : English
Дата кодирования : UTC 2012-03-21 21:33:26
Дата пометки : UTC 2012-03-21 21:33:30
Основные цвета : BT.601-6 525, BT.1358 525, BT.1700 NTSC, SMPTE 170M
Характеристики трансфера : BT.709-5, BT.1361
Коэффициенты матрицы : BT.601-6 525, BT.1358 525, BT.1700 NTSC, SMPTE 170M

Аудио
Идентификатор : 2
Формат : AAC
Формат/Информация : Advanced Audio Codec
Профиль формата : LC
Идентификатор кодека : 40
Продолжительность : 3 м. 19 с.
Продолжительность оригинала : 3 м. 19 с.
Вид битрейта : Постоянный
Битрейт : 256 Кбит/сек
Каналы : 2 канала
Расположение каналов : Front: L R
Частота : 44,1 КГц
Метод сжатия : С потерями
Размер потока : 5,90 Мбайт (14%)
Размер потока оригинала : 5,90 Мбайт (14%)
Язык : English
Дата кодирования : UTC 2012-03-21 21:33:26
Дата пометки : UTC 2012-03-21 21:33:30

Меню
Идентификатор : 3
Язык : English
Дата кодирования : UTC 2012-03-21 21:33:30
Дата пометки : UTC 2012-03-21 21:33:30
Параметры видео:
Качество: WEB-DL
Продолжительность: 00:04:16
Формат: MPEG-4 (контейнер m4v)
Видео: H.264, 640 x 359 px (16:9), 23.976 fps, ~1477 kbps, анаморф
Аудио: Английский (AAC Stereo, 256 Кбит/сек, 44,1 КГц)
Навигация по главам: английские названия, изображения
Общее
Полное имя : C:\Users\Ромашка\Desktop\База музыки с блога\Keane\Keane - Strangeland (Deluxe Version)\18 - Keane - The Starting Line.m4v
Формат : MPEG-4
Идентификатор кодека : M4V
Размер файла : 53,9 Мбайт
Продолжительность : 4 м. 16 с.
Общий поток : 1763 Кбит/сек
Название фильма : The Starting Line
Альбом : Strangeland (Deluxe Version)
Альбом/Исполнитель : Keane
Трек/Положение : 18
Трек/Всего : 0
Исполнитель : Keane
Жанр : Alternative
Дата записи : UTC 2012-05-04 07:00:00
Дата кодирования : UTC 2012-03-21 21:28:55
Дата пометки : UTC 2012-03-21 21:35:03
Библиотека кодирования : Apple QuickTime
Правообладатель : ℗ 2012 Universal Island Records, a division of Universal Music Operations Limited
Обложка : Yes
Примечание : (Acoustic)
apID : <a href="mailto:kevinde@yeah.net" class="postLink">kevinde@yeah.net</a>
cnID : 512694687
rtng : 0
atID : 20576774
plID : 512694566
geID : 1620
sfID : 143443
stik : 6
purd : 2012-05-04 00:08:41
sonm : The Starting Line
xid : Universal:isrc:GBUV71200351
flvr : 6:640x480LC-256

Видео
Идентификатор : 1
Формат : AVC
Формат/Информация : Advanced Video Codec
Профиль формата : <a href="mailto:Baseline@L3.0" class="postLink">Baseline@L3.0</a>
Параметр CABAC формата : Нет
Параметр ReFrames формата : 1 кадр
Идентификатор кодека : avc1
Идентификатор кодека/Информация : Advanced Video Coding
Продолжительность : 4 м. 16 с.
Битрейт : 1477 Кбит/сек
Ширина : 640 пикселей
Высота : 359 пикселей
Высота оригинала : 360 пикселей
Соотношение сторон : 16:9
Соотношение сторон в оригинале : 16:9
Режим частоты кадров : Постоянный
Частота кадров : 25,000 кадров/сек
Цветовое пространство : YUV
Субдискретизация насыщенности : 4:2:0
Битовая глубина : 8 бит
Тип развёртки : Прогрессивная
Бит/(Пиксели*Кадры) : 0.257
Размер потока : 45,2 Мбайт (84%)
Язык : English
Дата кодирования : UTC 2012-03-21 21:34:59
Дата пометки : UTC 2012-03-21 21:35:03
Основные цвета : BT.601-6 525, BT.1358 525, BT.1700 NTSC, SMPTE 170M
Характеристики трансфера : BT.709-5, BT.1361
Коэффициенты матрицы : BT.601-6 525, BT.1358 525, BT.1700 NTSC, SMPTE 170M

Аудио
Идентификатор : 2
Формат : AAC
Формат/Информация : Advanced Audio Codec
Профиль формата : LC
Идентификатор кодека : 40
Продолжительность : 4 м. 16 с.
Продолжительность оригинала : 4 м. 16 с.
Вид битрейта : Постоянный
Битрейт : 256 Кбит/сек
Каналы : 2 канала
Расположение каналов : Front: L R
Частота : 44,1 КГц
Метод сжатия : С потерями
Размер потока : 7,59 Мбайт (14%)
Размер потока оригинала : 7,59 Мбайт (14%)
Язык : English
Дата кодирования : UTC 2012-03-21 21:34:59
Дата пометки : UTC 2012-03-21 21:35:03

Меню
Идентификатор : 3
Язык : English
Дата кодирования : UTC 2012-03-21 21:35:03
Дата пометки : UTC 2012-03-21 21:35:03
Параметры видео:
Качество: WEB-DL
Продолжительность: 00:03:38
Формат: MPEG-4 (контейнер m4v)
Видео: H.264, 640 x 359 px (16:9), 23.976 fps, ~1457 kbps, анаморф
Аудио: Английский (AAC Stereo, 256 Кбит/сек, 44,1 КГц)
Навигация по главам: английские названия, изображения
Общее
Полное имя : C:\Users\Ромашка\Desktop\База музыки с блога\Keane\Keane - Strangeland (Deluxe Version)\19 - Keane - Sovereign Light Café.m4v
Формат : MPEG-4
Идентификатор кодека : M4V
Размер файла : 45,5 Мбайт
Продолжительность : 3 м. 38 с.
Общий поток : 1749 Кбит/сек
Название фильма : Sovereign Light Café
Альбом : Strangeland (Deluxe Version)
Альбом/Исполнитель : Keane
Трек/Положение : 19
Трек/Всего : 0
Исполнитель : Keane
Жанр : Alternative
Дата записи : UTC 2012-05-04 07:00:00
Дата кодирования : UTC 2012-03-21 21:28:50
Дата пометки : UTC 2012-03-21 21:33:07
Библиотека кодирования : Apple QuickTime
Правообладатель : ℗ 2012 Universal Island Records, a division of Universal Music Operations Limited
Обложка : Yes
Примечание : (Acoustic)
apID : <a href="mailto:kevinde@yeah.net" class="postLink">kevinde@yeah.net</a>
cnID : 512694789
rtng : 0
atID : 389361892
plID : 512694566
geID : 1620
sfID : 143443
stik : 6
purd : 2012-05-04 00:08:41
sonm : Sovereign Light Café
xid : Universal:isrc:GBUV71200349
flvr : 6:640x480LC-256

Видео
Идентификатор : 1
Формат : AVC
Формат/Информация : Advanced Video Codec
Профиль формата : <a href="mailto:Baseline@L3.0" class="postLink">Baseline@L3.0</a>
Параметр CABAC формата : Нет
Параметр ReFrames формата : 1 кадр
Идентификатор кодека : avc1
Идентификатор кодека/Информация : Advanced Video Coding
Продолжительность : 3 м. 38 с.
Битрейт : 1457 Кбит/сек
Ширина : 640 пикселей
Высота : 359 пикселей
Высота оригинала : 360 пикселей
Соотношение сторон : 16:9
Соотношение сторон в оригинале : 16:9
Режим частоты кадров : Постоянный
Частота кадров : 25,000 кадров/сек
Цветовое пространство : YUV
Субдискретизация насыщенности : 4:2:0
Битовая глубина : 8 бит
Тип развёртки : Прогрессивная
Бит/(Пиксели*Кадры) : 0.254
Размер потока : 37,9 Мбайт (83%)
Язык : English
Дата кодирования : UTC 2012-03-21 21:33:03
Дата пометки : UTC 2012-03-21 21:33:07
Основные цвета : BT.601-6 525, BT.1358 525, BT.1700 NTSC, SMPTE 170M
Характеристики трансфера : BT.709-5, BT.1361
Коэффициенты матрицы : BT.601-6 525, BT.1358 525, BT.1700 NTSC, SMPTE 170M

Аудио
Идентификатор : 2
Формат : AAC
Формат/Информация : Advanced Audio Codec
Профиль формата : LC
Идентификатор кодека : 40
Продолжительность : 3 м. 38 с.
Продолжительность оригинала : 3 м. 38 с.
Вид битрейта : Постоянный
Битрейт : 256 Кбит/сек
Каналы : 2 канала
Расположение каналов : Front: L R
Частота : 44,1 КГц
Метод сжатия : С потерями
Размер потока : 6,45 Мбайт (14%)
Размер потока оригинала : 6,45 Мбайт (14%)
Язык : English
Дата кодирования : UTC 2012-03-21 21:33:03
Дата пометки : UTC 2012-03-21 21:33:07

Меню
Идентификатор : 3
Язык : English
Дата кодирования : UTC 2012-03-21 21:33:07
Дата пометки : UTC 2012-03-21 21:33:07
Параметры видео:
Качество: WEB-DL
Продолжительность: 00:04:02
Формат: MPEG-4 (контейнер m4v)
Видео: H.264, 640 x 359 px (16:9), 23.976 fps, ~1474 kbps, анаморф
Аудио: Английский (AAC Stereo, 256 Кбит/сек, 44,1 КГц)
Навигация по главам: английские названия, изображения
Общее
Полное имя : C:\Users\Ромашка\Desktop\База музыки с блога\Keane\Keane - Strangeland (Deluxe Version)\20 - Keane - Disconnected.m4v
Формат : MPEG-4
Идентификатор кодека : M4V
Размер файла : 50,8 Мбайт
Продолжительность : 4 м. 2 с.
Общий поток : 1762 Кбит/сек
Название фильма : Disconnected
Альбом : Strangeland (Deluxe Version)
Альбом/Исполнитель : Keane
Трек/Положение : 20
Трек/Всего : 0
Исполнитель : Keane
Жанр : Alternative
Дата записи : UTC 2012-05-04 07:00:00
Дата кодирования : UTC 2012-03-21 21:28:44
Дата пометки : UTC 2012-03-21 21:33:28
Библиотека кодирования : Apple QuickTime
Правообладатель : ℗ 2012 Universal Island Records, a division of Universal Music Operations Limited
Обложка : Yes
Примечание : (Acoustic)
apID : <a href="mailto:kevinde@yeah.net" class="postLink">kevinde@yeah.net</a>
cnID : 512694799
rtng : 0
atID : 319260547
plID : 512694566
geID : 1620
sfID : 143443
stik : 6
purd : 2012-05-04 00:08:41
sonm : Disconnected
xid : Universal:isrc:GBUV71200348
flvr : 6:640x480LC-256

Видео
Идентификатор : 1
Формат : AVC
Формат/Информация : Advanced Video Codec
Профиль формата : <a href="mailto:Baseline@L3.0" class="postLink">Baseline@L3.0</a>
Параметр CABAC формата : Нет
Параметр ReFrames формата : 1 кадр
Идентификатор кодека : avc1
Идентификатор кодека/Информация : Advanced Video Coding
Продолжительность : 4 м. 2 с.
Битрейт : 1474 Кбит/сек
Ширина : 640 пикселей
Высота : 359 пикселей
Высота оригинала : 360 пикселей
Соотношение сторон : 16:9
Соотношение сторон в оригинале : 16:9
Режим частоты кадров : Постоянный
Частота кадров : 25,000 кадров/сек
Цветовое пространство : YUV
Субдискретизация насыщенности : 4:2:0
Битовая глубина : 8 бит
Тип развёртки : Прогрессивная
Бит/(Пиксели*Кадры) : 0.257
Размер потока : 42,5 Мбайт (84%)
Язык : English
Дата кодирования : UTC 2012-03-21 21:33:25
Дата пометки : UTC 2012-03-21 21:33:28
Основные цвета : BT.601-6 525, BT.1358 525, BT.1700 NTSC, SMPTE 170M
Характеристики трансфера : BT.709-5, BT.1361
Коэффициенты матрицы : BT.601-6 525, BT.1358 525, BT.1700 NTSC, SMPTE 170M

Аудио
Идентификатор : 2
Формат : AAC
Формат/Информация : Advanced Audio Codec
Профиль формата : LC
Идентификатор кодека : 40
Продолжительность : 4 м. 2 с.
Продолжительность оригинала : 4 м. 2 с.
Вид битрейта : Постоянный
Битрейт : 256 Кбит/сек
Каналы : 2 канала
Расположение каналов : Front: L R
Частота : 44,1 КГц
Метод сжатия : С потерями
Размер потока : 7,15 Мбайт (14%)
Размер потока оригинала : 7,15 Мбайт (14%)
Язык : English
Дата кодирования : UTC 2012-03-21 21:33:25
Дата пометки : UTC 2012-03-21 21:33:28

Меню
Идентификатор : 3
Язык : English
Дата кодирования : UTC 2012-03-21 21:33:28
Дата пометки : UTC 2012-03-21 21:33:28
Параметры видео:
Качество: WEB-DL
Продолжительность: 00:03:51
Формат: MPEG-4 (контейнер m4v)
Видео: H.264, 640 x 359 px (16:9), 23.976 fps, ~1455 kbps, анаморф
Аудио: Английский (AAC Stereo, 256 Кбит/сек, 44,1 КГц)
Навигация по главам: английские названия, изображения
Общее
Полное имя : C:\Users\Ромашка\Desktop\База музыки с блога\Keane\Keane - Strangeland (Deluxe Version)\21 - Keane - Watch How You Go.m4v
Формат : MPEG-4
Идентификатор кодека : M4V
Размер файла : 48,2 Мбайт
Продолжительность : 3 м. 51 с.
Общий поток : 1746 Кбит/сек
Название фильма : Watch How You Go
Альбом : Strangeland (Deluxe Version)
Альбом/Исполнитель : Keane
Трек/Положение : 21
Трек/Всего : 0
Исполнитель : Keane
Жанр : Alternative
Дата записи : UTC 2012-05-04 07:00:00
Дата кодирования : UTC 2012-03-21 21:28:53
Дата пометки : UTC 2012-03-21 21:33:18
Библиотека кодирования : Apple QuickTime
Правообладатель : ℗ 2012 Universal Island Records, a division of Universal Music Operations Limited
Обложка : Yes
Примечание : (Acoustic)
apID : <a href="mailto:kevinde@yeah.net" class="postLink">kevinde@yeah.net</a>
cnID : 512694803
rtng : 0
atID : 20576774
plID : 512694566
geID : 1620
sfID : 143443
stik : 6
purd : 2012-05-04 05:08:14
sonm : Watch How You Go
xid : Universal:isrc:GBUV71200350
flvr : 6:640x480LC-256

Видео
Идентификатор : 1
Формат : AVC
Формат/Информация : Advanced Video Codec
Профиль формата : <a href="mailto:Baseline@L3.0" class="postLink">Baseline@L3.0</a>
Параметр CABAC формата : Нет
Параметр ReFrames формата : 1 кадр
Идентификатор кодека : avc1
Идентификатор кодека/Информация : Advanced Video Coding
Продолжительность : 3 м. 51 с.
Битрейт : 1455 Кбит/сек
Ширина : 640 пикселей
Высота : 359 пикселей
Высота оригинала : 360 пикселей
Соотношение сторон : 16:9
Соотношение сторон в оригинале : 16:9
Режим частоты кадров : Постоянный
Частота кадров : 25,000 кадров/сек
Цветовое пространство : YUV
Субдискретизация насыщенности : 4:2:0
Битовая глубина : 8 бит
Тип развёртки : Прогрессивная
Бит/(Пиксели*Кадры) : 0.253
Размер потока : 40,2 Мбайт (83%)
Язык : English
Дата кодирования : UTC 2012-03-21 21:33:13
Дата пометки : UTC 2012-03-21 21:33:18
Основные цвета : BT.601-6 525, BT.1358 525, BT.1700 NTSC, SMPTE 170M
Характеристики трансфера : BT.709-5, BT.1361
Коэффициенты матрицы : BT.601-6 525, BT.1358 525, BT.1700 NTSC, SMPTE 170M

Аудио
Идентификатор : 2
Формат : AAC
Формат/Информация : Advanced Audio Codec
Профиль формата : LC
Идентификатор кодека : 40
Продолжительность : 3 м. 51 с.
Продолжительность оригинала : 3 м. 51 с.
Вид битрейта : Постоянный
Битрейт : 256 Кбит/сек
Каналы : 2 канала
Расположение каналов : Front: L R
Частота : 44,1 КГц
Метод сжатия : С потерями
Размер потока : 6,89 Мбайт (14%)
Размер потока оригинала : 6,89 Мбайт (14%)
Язык : English
Дата кодирования : UTC 2012-03-21 21:33:13
Дата пометки : UTC 2012-03-21 21:33:18

Меню
Идентификатор : 3
Язык : English
Дата кодирования : UTC 2012-03-21 21:33:18
Дата пометки : UTC 2012-03-21 21:33:18
Параметры видео:
Качество: WEB-DL
Продолжительность: 00:02:27
Формат: MPEG-4 (контейнер m4v)
Видео: H.264, 640 x 264 px (2,40:1), 23.976 fps, ~1482 kbps, анаморф
Аудио: Английский (AAC Stereo, 256 Кбит/сек, 44,1 КГц)
Навигация по главам: английские названия, изображения
Общее
Полное имя : C:\Users\Ромашка\Desktop\База музыки с блога\Keane\Keane - Strangeland (Deluxe Version)\22 - Keane - Trailer 1.m4v
Формат : MPEG-4
Идентификатор кодека : M4V
Размер файла : 31,5 Мбайт
Продолжительность : 2 м. 27 с.
Общий поток : 1794 Кбит/сек
Название фильма : Trailer 1
Альбом : Strangeland (Deluxe Version)
Альбом/Исполнитель : Keane
Трек/Положение : 22
Трек/Всего : 0
Исполнитель : Keane
Жанр : Alternative
Дата записи : UTC 2012-05-04 07:00:00
Дата кодирования : UTC 2012-03-21 21:28:42
Дата пометки : UTC 2012-03-21 21:30:31
Библиотека кодирования : Apple QuickTime
Правообладатель : ℗ 2012 Universal Island Records, a division of Universal Music Operations Limited
Обложка : Yes
apID : <a href="mailto:kevinde@yeah.net" class="postLink">kevinde@yeah.net</a>
cnID : 512694894
rtng : 0
atID : 389361892
plID : 512694566
geID : 1620
sfID : 143443
stik : 6
purd : 2012-05-04 00:08:41
xid : Universal:isrc:GBUV71200352
flvr : 6:640x480LC-256

Видео
Идентификатор : 1
Формат : AVC
Формат/Информация : Advanced Video Codec
Профиль формата : <a href="mailto:Baseline@L2.1" class="postLink">Baseline@L2.1</a>
Параметр CABAC формата : Нет
Параметр ReFrames формата : 1 кадр
Параметр GOP формата : N=1
Идентификатор кодека : avc1
Идентификатор кодека/Информация : Advanced Video Coding
Продолжительность : 2 м. 27 с.
Битрейт : 1482 Кбит/сек
Ширина : 640 пикселей
Высота : 264 пикселя
Соотношение сторон : 2,40:1
Режим частоты кадров : Постоянный
Частота кадров : 25,000 кадров/сек
Цветовое пространство : YUV
Субдискретизация насыщенности : 4:2:0
Битовая глубина : 8 бит
Тип развёртки : Прогрессивная
Бит/(Пиксели*Кадры) : 0.351
Размер потока : 26,1 Мбайт (83%)
Язык : English
Дата кодирования : UTC 2012-03-21 21:30:29
Дата пометки : UTC 2012-03-21 21:30:31
Основные цвета : BT.601-6 525, BT.1358 525, BT.1700 NTSC, SMPTE 170M
Характеристики трансфера : BT.709-5, BT.1361
Коэффициенты матрицы : BT.601-6 525, BT.1358 525, BT.1700 NTSC, SMPTE 170M

Аудио
Идентификатор : 2
Формат : AAC
Формат/Информация : Advanced Audio Codec
Профиль формата : LC
Идентификатор кодека : 40
Продолжительность : 2 м. 27 с.
Продолжительность оригинала : 2 м. 27 с.
Вид битрейта : Постоянный
Битрейт : 256 Кбит/сек
Каналы : 2 канала
Расположение каналов : Front: L R
Частота : 44,1 КГц
Метод сжатия : С потерями
Размер потока : 4,36 Мбайт (14%)
Размер потока оригинала : 4,36 Мбайт (14%)
Язык : English
Дата кодирования : UTC 2012-03-21 21:30:29
Дата пометки : UTC 2012-03-21 21:30:31

Меню
Идентификатор : 3
Язык : English
Дата кодирования : UTC 2012-03-21 21:30:31
Дата пометки : UTC 2012-03-21 21:30:31
Параметры видео:
Качество: WEB-DL
Продолжительность: 00:02:25
Формат: MPEG-4 (контейнер m4v)
Видео: H.264, 640 x 264 px (2,40:1), 23.976 fps, ~1409 kbps, анаморф
Аудио: Английский (AAC Stereo, 256 Кбит/сек, 44,1 КГц)
Навигация по главам: английские названия, изображения
Общее
Полное имя : C:\Users\Ромашка\Desktop\База музыки с блога\Keane\Keane - Strangeland (Deluxe Version)\23 - Keane - Trailer 2.m4v
Формат : MPEG-4
Идентификатор кодека : M4V
Размер файла : 29,7 Мбайт
Продолжительность : 2 м. 25 с.
Общий поток : 1721 Кбит/сек
Название фильма : Trailer 2
Альбом : Strangeland (Deluxe Version)
Альбом/Исполнитель : Keane
Трек/Положение : 23
Трек/Всего : 0
Исполнитель : Keane
Жанр : Alternative
Дата записи : UTC 2012-05-04 07:00:00
Дата кодирования : UTC 2012-03-21 21:28:38
Дата пометки : UTC 2012-03-21 21:30:35
Библиотека кодирования : Apple QuickTime
Правообладатель : ℗ 2012 Universal Island Records, a division of Universal Music Operations Limited
Обложка : Yes
apID : <a href="mailto:kevinde@yeah.net" class="postLink">kevinde@yeah.net</a>
cnID : 512694898
rtng : 0
atID : 389361892
plID : 512694566
geID : 1620
sfID : 143443
stik : 6
purd : 2012-05-04 00:08:41
xid : Universal:isrc:GBUV71200353
flvr : 6:640x480LC-256

Видео
Идентификатор : 1
Формат : AVC
Формат/Информация : Advanced Video Codec
Профиль формата : <a href="mailto:Baseline@L2.1" class="postLink">Baseline@L2.1</a>
Параметр CABAC формата : Нет
Параметр ReFrames формата : 1 кадр
Идентификатор кодека : avc1
Идентификатор кодека/Информация : Advanced Video Coding
Продолжительность : 2 м. 25 с.
Битрейт : 1409 Кбит/сек
Ширина : 640 пикселей
Высота : 264 пикселя
Соотношение сторон : 2,40:1
Режим частоты кадров : Постоянный
Частота кадров : 25,000 кадров/сек
Цветовое пространство : YUV
Субдискретизация насыщенности : 4:2:0
Битовая глубина : 8 бит
Тип развёртки : Прогрессивная
Бит/(Пиксели*Кадры) : 0.334
Размер потока : 24,4 Мбайт (82%)
Язык : English
Дата кодирования : UTC 2012-03-21 21:30:33
Дата пометки : UTC 2012-03-21 21:30:35
Основные цвета : BT.601-6 525, BT.1358 525, BT.1700 NTSC, SMPTE 170M
Характеристики трансфера : BT.709-5, BT.1361
Коэффициенты матрицы : BT.601-6 525, BT.1358 525, BT.1700 NTSC, SMPTE 170M

Аудио
Идентификатор : 2
Формат : AAC
Формат/Информация : Advanced Audio Codec
Профиль формата : LC
Идентификатор кодека : 40
Продолжительность : 2 м. 25 с.
Продолжительность оригинала : 2 м. 25 с.
Вид битрейта : Постоянный
Битрейт : 256 Кбит/сек
Каналы : 2 канала
Расположение каналов : Front: L R
Частота : 44,1 КГц
Метод сжатия : С потерями
Размер потока : 4,28 Мбайт (14%)
Размер потока оригинала : 4,28 Мбайт (14%)
Язык : English
Дата кодирования : UTC 2012-03-21 21:30:33
Дата пометки : UTC 2012-03-21 21:30:35

Меню
Идентификатор : 3
Язык : English
Дата кодирования : UTC 2012-03-21 21:30:35
Дата пометки : UTC 2012-03-21 21:30:35


Трекер:  [ 08-Май-2012 16:09 ]

  

Скачать .torrent

Размер .torrent файла 18 KB


Размер: 423 MB
Хэш (hash) релиза: b586e1fdb07b273bd9da7d9a9aaa5ea4a11d50ed

Торренты, похожие на Keane - Strangeland скачать торрент

Форум Название Автор Размер S L Добавлен
Apple Mobile Device Software ·· (Pop Rock, Piano Rock) Keane - Strangeland (Deluxe Edition) - 2012 ALAC, lossless L 416992632398 MB 0 0 1336754640

19:44

11-Май-12

Apple Mobile Device Software ·· (Pop Rock) Keane - Strangeland - 2012 (US Edition - Cherrytree Records) ALAC (tracks + .CUE), lossless Galfimbul 322597253308 MB 0 0 1336365360

07:36

7-Май-12

Еще никто не оставлял запись к записи скачать торрент Keane - Strangeland . Будь первым!

!Обратная связь