Скачать через торрент VA - Сьвяты Вечар, Сьвяты вечар бесплатно русская версия torrent активатор

Если у вас наблюдаются проблемы со скриншотами, переходом по ссылками, скачиванием торрентов - проблемы в блокировщике рекламы AdBlock. #хорошегоДня!


Статистика раздачи
Размер:  688 MB   |    Зарегистрирован:  5 лет 5 месяцев   |    .torrent скачан:  24 раза   |   
Раздают:  1  
   
Загрузка...
 
Автор Сообщение

L


Сьвяты Вечар, Сьвяты вечар (2-е выданьне)



Год: 2000 - 2003
Страна: Беларусь
Страна-производитель диска: Беларусь
Жанр: Folk
Тип издания: сборник
Издатель (лейбл): БМА group
Номер по каталогу: CD БМA-022
Наличие сканов в содержимом раздачи: да
Продолжительность: 01:20:39
Тексты: отсутствуют
Кодек: ALAC
Программа-риповщик: foobar2000 + iTunes (lossless)
Битрейт: lossless
Треклист:
01. "Дзеці", З. Вайцюшкевіч, Л. Вольскі, В. Круглова - Ціхая ноч
02. А. Памідораў, В. Круглова - Цуд на Каляды
03. В. Круглова, З. Вайцюшкевіч, А. Памідораў - Шчодры вечар, сьвяты вечар
04. "Дзеці", Л. Вольскі - Новая радасьць
05. Л. Вольскі, В. Круглова, З. Вайцюшкевіч - 2000 год
06. А. Брадоўская, Л. Вольскі - Званочкі
07. З. Вайцюшкевіч, Л. Вольскі - Калядны марш
08. А. Памідораў, Л. Вольскі, В. Круглова, З. Вайцюшкевіч - Глёрыя!
09. В. Круглова - Ave Марыя!
10. "Дзеці", В. Круглова, З. Вайцюшкевіч - Пастушкі мілы
11. В. Шалкевіч - Сьвяты Мікалай
12. "Дзеці" - Учора зь вячора
  
Exact Audio Copy V0.99 prebeta 4 from 23. January 2008

EAC extraction logfile from 12. November 2008, 23:00

Various Artists / ?????? ????? 2000

Used drive : _NEC DVD_RW ND-4570A Adapter: 0 ID: 0

Read mode : SecureUtilize accurate stream : YesDefeat audio cache : YesMake use of C2 pointers : No

Read offset correction : 48Overread into Lead-In and Lead-Out : NoFill up missing offset samples with silence : YesDelete leading and trailing silent blocks : NoNull samples used in CRC calculations : YesUsed interface : Native Win32 interface for Win NT & 2000

Used output format : Internal WAV RoutinesSample format : 44.100 Hz; 16 Bit; Stereo

TOC of the extracted CD

Track | Start | Length | Start sector | End sector --------------------------------------------------------- 1 | 0:00.00 | 3:11.23 | 0 | 14347 2 | 3:11.23 | 3:54.31 | 14348 | 31928 3 | 7:05.54 | 4:20.34 | 31929 | 51462 4 | 11:26.13 | 4:12.30 | 51463 | 70392 5 | 15:38.43 | 3:02.31 | 70393 | 84073 6 | 18:40.74 | 2:01.58 | 84074 | 93206 7 | 20:42.57 | 1:51.36 | 93207 | 101567 8 | 22:34.18 | 2:45.17 | 101568 | 113959 9 | 25:19.35 | 4:31.16 | 113960 | 134300 10 | 29:50.51 | 3:59.57 | 134301 | 152282 11 | 33:50.33 | 1:49.26 | 152283 | 160483 12 | 35:39.59 | 1:51.14 | 160484 | 168822

Range status and errors

Selected range

Filename J:\Music\Belarus\kriwi\Various Artists - 2000.wav

Peak level 98.7 % Range quality 99.9 % Copy CRC AFD11CEF Copy OK

No errors occurred

End of status report
01. "Дзеці", З. Вайцюшкевіч, Л. Вольскі, В. Круглова - Ціхая ноч
02. А. Памідораў, В. Круглова - Цуд на Каляды
03. В. Круглова, З. Вайцюшкевіч, А. Памідораў - Шчодры вечар, сьвяты вечар
04. "Дзеці", Л. Вольскі - Новая радасьць
05. Л. Вольскі, В. Круглова, З. Вайцюшкевіч - 2000 год
06. А. Брадоўская, Л. Вольскі - Званочкі
07. З. Вайцюшкевіч, Л. Вольскі - Калядны марш
08. А. Памідораў, Л. Вольскі, В. Круглова, З. Вайцюшкевіч - Глёрыя!
09. В. Круглова - Ave Марыя!
10. "Дзеці", В. Круглова, З. Вайцюшкевіч - Пастушкі мілы
11. В. Шалкевіч - Сьвяты Мікалай
12. "Дзеці" - Учора зь вячора
13. Палац - Звон зьвініць
14. Нейра Дзюбель - З новым годам, родны край!
  
Exact Audio Copy V0.99 prebeta 5 from 4. May 2009

Отчёт EAC об извлечении, выполненном 6. мая 2012, 11:26

Various / Сьвяты вечар (2-е выданьне)

Дисковод: _NEC DVD_RW ND-3550A Adapter: 0 ID: 0

Режим чтения : ДостоверностьИспользование точного потока : ДаОтключение кэша аудио : ДаИспользование указателей C2 : Нет

Коррекция смещения при чтении : 48Способность читать области Lead-in и Lead-out : НетЗаполнение пропущенных сэмплов тишиной : ДаУдаление блоков с тишиной в начале и конце : НетПри вычислениях CRC использовались нулевые сэмплы : ДаИнтерфейс : Установленный внешний ASPI-интерфейс

Выходной формат : Внутренние WAV-операцииФормат сэмплов : 44.100 Гц; 16 бит; стерео

TOC извлечённого CD

Трек | Старт | Длительность | Начальный сектор | Конечный сектор --------------------------------------------------------------------- 1 | 0:00.00 | 3:11.06 | 0 | 14330 2 | 3:11.06 | 3:54.18 | 14331 | 31898 3 | 7:05.24 | 4:20.41 | 31899 | 51439 4 | 11:25.65 | 4:12.22 | 51440 | 70361 5 | 15:38.12 | 3:03.03 | 70362 | 84089 6 | 18:41.15 | 2:01.12 | 84090 | 93176 7 | 20:42.27 | 1:51.59 | 93177 | 101560 8 | 22:34.11 | 2:45.03 | 101561 | 113938 9 | 25:19.14 | 4:31.14 | 113939 | 134277 10 | 29:50.28 | 3:59.61 | 134278 | 152263 11 | 33:50.14 | 1:49.31 | 152264 | 160469 12 | 35:39.45 | 1:49.60 | 160470 | 168704 13 | 37:29.30 | 2:59.37 | 168705 | 182166 14 | 40:28.67 | 2:40.01 | 182167 | 194167

Характеристики диапазона извлечения и сообщения об ошибках

Выбранный диапазон

Имя файла F:\Music lossless\Various - Сьвяты вечар (2-е выданьне).wav

Пиковый уровень 98.7 % Качество диапазона 100.0 % CRC теста 0876D801 CRC копии 0876D801 Копирование... OK

Ошибок не произошло

AccurateRip: сводка

Трек 1 нет в базе данныхТрек 2 нет в базе данныхТрек 3 нет в базе данныхТрек 4 нет в базе данныхТрек 5 нет в базе данныхТрек 6 нет в базе данныхТрек 7 нет в базе данныхТрек 8 нет в базе данныхТрек 9 нет в базе данныхТрек 10 нет в базе данныхТрек 11 нет в базе данныхТрек 12 нет в базе данныхТрек 13 нет в базе данныхТрек 14 нет в базе данных

Ни одного трека нет в базе AccurateRip

Конец отчёта

  
Started at: воскресенье, 06. 05. 2012. - 13:43.012 files found

1 -===- F:\Music lossless\Сьвяты вечар lossless\2000 - Сьвяты Вечар\Various - Сьвяты Вечар.ape Extracted successfully Conclusion: this track is CDDA with probability 99% Tempfile successfully deleted.

2 -===- F:\Music lossless\Сьвяты вечар lossless\2003 - Сьвяты вечар (2-е выданьне)\Various - Сьвяты вечар (2-е выданьне).flac Extracted successfully Conclusion: this track is CDDA with probability 99% Tempfile successfully deleted.

Finished at: воскресенье, 06. 05. 2012. - 13:50.34 (operation time: 0:07.32)



Трекер:  [ 08-Май-2012 07:19 ]

  

Скачать .torrent

Размер .torrent файла 17 KB


Размер: 688 MB
Хэш (hash) релиза: a52380a1bd67acbeba760ec78e70e2d87a4bbedd

Еще никто не оставлял запись к записи скачать торрент VA - Сьвяты Вечар, Сьвяты вечар . Будь первым!

!Обратная связь