Скачать через торрент Terry Oldfield & Soraya Saraswati - 2011 бесплатно русская версия torrent активатор

Если у вас наблюдаются проблемы со скриншотами, переходом по ссылками, скачиванием торрентов - проблемы в блокировщике рекламы AdBlock. #хорошегоДня!


Статистика раздачи
Размер:  310 MB   |    Зарегистрирован:  5 лет 5 месяцев   |    .torrent скачан:  36 раз   |   
Раздают:  1  
   
Загрузка...
 
Автор Сообщение

Galfimbul

avatar Galfimbul


Terry Oldfield & Soraya Saraswati

Год: 2011
Страна-производитель диска: US
Жанр: Healing, Relaxation
Тип издания: ремастер
Издатель (лейбл): New Earth Records
Номер по каталогу: NE 3112
Наличие сканов в содержимом раздачи: нет
Продолжительность: 1:01:07
Кодек: ALAC
Программа-риповщик : Сторонняя программа (lossless)
Битрейт: lossless
Треклист:
01. Monsoon Rain [0:06:30.22]
02. Butterfly [0:05:57.26]
03. A Walk in the Forest [0:06:07.24]
04. Desert Moon [0:05:24.60]
05. Wild Mountain [0:05:30.58]
06. Call of the Deep [0:05:33.15]
07. Bansuri Magic [0:05:40.30]
08. Sacred Temple [0:05:19.03]
09. The Weaving [0:05:11.02]
10. Ocean Song [0:05:16.22]
11. Celtic Land [0:04:36.51]
Доп. информация: Традиционные песни, мантры и киртан с Востока несут собой новые пути возвышения Духа... мощное сплетение музыкальных инструментов, электроники и глубокий песенный вокал...
  
Exact Audio Copy V1.0 beta 1 from 15. November 2010

EAC extraction logfile from 30. September 2011, 17:42

Terry Oldfield & Soraya Saraswati / Healing Sound Journey

Used drive : HL-DT-STDVDRAM GSA-H10N Adapter: 4 ID: 0

Read mode : SecureUtilize accurate stream : YesDefeat audio cache : YesMake use of C2 pointers : No

Read offset correction : 667Overread into Lead-In and Lead-Out : NoFill up missing offset samples with silence : YesDelete leading and trailing silent blocks : NoNull samples used in CRC calculations : YesUsed interface : Native Win32 interface for Win NT & 2000

Used output format : Internal WAV RoutinesSample format : 44.100 Hz; 16 Bit; Stereo

TOC of the extracted CD

Track | Start | Length | Start sector | End sector --------------------------------------------------------- 1 | 0:00.00 | 6:30.22 | 0 | 29271 2 | 6:30.22 | 5:57.26 | 29272 | 56072 3 | 12:27.48 | 6:07.24 | 56073 | 83621 4 | 18:34.72 | 5:24.60 | 83622 | 107981 5 | 23:59.57 | 5:30.58 | 107982 | 132789 6 | 29:30.40 | 5:33.15 | 132790 | 157779 7 | 35:03.55 | 5:40.30 | 157780 | 183309 8 | 40:44.10 | 5:19.03 | 183310 | 207237 9 | 46:03.13 | 5:11.02 | 207238 | 230564 10 | 51:14.15 | 5:16.22 | 230565 | 254286 11 | 56:30.37 | 4:36.51 | 254287 | 275037

Range status and errors

Selected range

Filename D:\TMP_MUSIC\Terry Oldfield & Soraya Saraswati - Healing Sound Journey (2011) HQShare by egotrsh\Terry Oldfield & Soraya Saraswati - Healing Sound Journey.wav

Peak level 97.8 % Extraction speed 0.4 X Range quality 100.0 % Test CRC C7D1CA04 Copy CRC C7D1CA04 Copy OK

No errors occurred

AccurateRip summary

Track 1 not present in databaseTrack 2 not present in databaseTrack 3 not present in databaseTrack 4 not present in databaseTrack 5 not present in databaseTrack 6 not present in databaseTrack 7 not present in databaseTrack 8 not present in databaseTrack 9 not present in databaseTrack 10 not present in databaseTrack 11 not present in database

None of the tracks are present in the AccurateRip database

End of status report


Трекер:  [ 07-Май-2012 07:34 ]

  

Скачать .torrent

Размер .torrent файла 13 KB


Размер: 310 MB
Хэш (hash) релиза: 94f66d458136573d16b88bae322475f874e26db8

Еще никто не оставлял запись к записи скачать торрент Terry Oldfield & Soraya Saraswati - 2011 . Будь первым!

!Обратная связь