Скачать через торрент B.o.B - Strange Clouds бесплатно русская версия torrent активатор

Если у вас наблюдаются проблемы со скриншотами, переходом по ссылками, скачиванием торрентов - проблемы в блокировщике рекламы AdBlock. #хорошегоДня!


Статистика раздачи
Размер:  577 MB   |    Зарегистрирован:  5 лет 5 месяцев   |    .torrent скачан:  34 раза   |   
Раздают:  1  
   
Загрузка...
 
Автор Сообщение

Galfimbul

avatar Galfimbul


B.o.B
Strange Clouds
[Target Deluxe Edition]
Год: 2012
Страна: USA
Жанр: Alternative Hip-Hop, Pop Rap, Post-Dubstep
Издатель (лейбл): Grand Hustle, Atlantic
Продолжительность: 1:22:55
Тексты: вшиты
Вшитые обложки: есть
Кодек: ALAC
Программа-риповщик : iTunesEncodeNet + iTunes
Битрейт: lossless

Треклист:
01. Bombs Away (Feat. Morgan Freeman)
02. Ray Bands
03. So Hard To Breathe
04. Both Of Us (Feat. Taylor Swift)
05. Strange Clouds (Feat. Lil Wayne)
06. So Good
07. Play For Keeps
08. Arena (Feat. Chris Brown And T.I.)
09. Out Of My Mind (Feat. Nicki Minaj)
10. Never Let You Go (Feat. Ryan Tedder)
11. Chandelier (Feat. Lauriana Mae)
12. Circles
13. Just A Sign (Feat. Playboy Tre)
14. Castles (Feat. Trey Songz)
15. Where Are You (B.o.B Vs. Bobby Ray)
Target Deluxe Edition:
01. MJ (Feat. Nelly)
02. Back It Up For Bobby
03. What Are We Doing
04. Guest List (Feat. Roscoe Dash)
05. Ms. Professional
  
Exact Audio Copy V1.0 beta 3 from 29. August 2011

EAC extraction logfile from 1. May 2012, 11:06

B.O.B / Strange Clouds

Used drive : HL-DT-STBDDVDRW GBC-H20L Adapter: 2 ID: 1

Read mode : SecureUtilize accurate stream : YesDefeat audio cache : YesMake use of C2 pointers : No

Read offset correction : 667Overread into Lead-In and Lead-Out : NoFill up missing offset samples with silence : YesDelete leading and trailing silent blocks : NoNull samples used in CRC calculations : YesUsed interface : Native Win32 interface for Win NT & 2000Gap handling : Appended to previous track

Used output format : User Defined EncoderSelected bitrate : 1024 kBit/sQuality : HighAdd ID3 tag : NoCommand line compressor : C:\Program Files (x86)\Exact Audio Copy\Flac\flac.exeAdditional command line options : -8 -V -T "ARTIST=%artist%" -T "TITLE=%title%" -T "ALBUM=%albumtitle%" -T "DATE=%year%" -T "TRACKNUMBER=%tracknr%" -T "GENRE=%genre%" -T "PERFORMER=%albuminterpret%" -T "COMPOSER=%composer%" %haslyrics%--tag-from-file=LYRICS="%lyricsfile%"%haslyrics% -T "ALBUMARTIST=%albumartist%" -T "DISCNUMBER=%cdnumber%" -T "TOTALDISCS=%totalcds%" -T "TOTALTRACKS=%numtracks%" -T "COMMENT=%comment%" %source% -o %dest%

TOC of the extracted CD

Track | Start | Length | Start sector | End sector --------------------------------------------------------- 1 | 0:00.00 | 5:28.63 | 0 | 24662 2 | 5:28.63 | 3:48.21 | 24663 | 41783 3 | 9:17.09 | 4:21.10 | 41784 | 61368 4 | 13:38.19 | 3:36.09 | 61369 | 77577 5 | 17:14.28 | 3:46.22 | 77578 | 94549 6 | 21:00.50 | 3:34.27 | 94550 | 110626 7 | 24:35.02 | 3:22.07 | 110627 | 125783 8 | 27:57.09 | 4:27.67 | 125784 | 145875 9 | 32:25.01 | 3:42.72 | 145876 | 162597 10 | 36:07.73 | 4:20.40 | 162598 | 182137 11 | 40:28.38 | 4:00.06 | 182138 | 200143 12 | 44:28.44 | 3:47.59 | 200144 | 217227 13 | 48:16.28 | 5:57.74 | 217228 | 244076 14 | 54:14.27 | 3:54.37 | 244077 | 261663 15 | 58:08.64 | 4:50.54 | 261664 | 283467

Track 1

Filename C:\EAC Rips\B.O.B - Strange Clouds (2012) [FLAC]\01 - Bombs Away (Feat. Morgan Freeman).wav

Pre-gap length 0:00:02.00

Peak level 99.8 % Extraction speed 3.8 X Track quality 100.0 % Test CRC 0AB4BB36 Copy CRC 0AB4BB36 Track not present in AccurateRip database Copy OK

Track 2

Filename C:\EAC Rips\B.O.B - Strange Clouds (2012) [FLAC]\02 - Ray Bands.wav

Peak level 99.8 % Extraction speed 4.0 X Track quality 100.0 % Test CRC E725457C Copy CRC E725457C Track not present in AccurateRip database Copy OK

Track 3

Filename C:\EAC Rips\B.O.B - Strange Clouds (2012) [FLAC]\03 - So Hard To Breathe.wav

Peak level 99.8 % Extraction speed 4.4 X Track quality 100.0 % Test CRC B736A3E7 Copy CRC B736A3E7 Track not present in AccurateRip database Copy OK

Track 4

Filename C:\EAC Rips\B.O.B - Strange Clouds (2012) [FLAC]\04 - Both Of Us (Feat. Taylor Swift).wav

Peak level 99.9 % Extraction speed 3.7 X Track quality 99.9 % Test CRC DCEC77E2 Copy CRC DCEC77E2 Track not present in AccurateRip database Copy OK

Track 5

Filename C:\EAC Rips\B.O.B - Strange Clouds (2012) [FLAC]\05 - Strange Clouds (Feat. Lil Wayne).wav

Peak level 97.0 % Extraction speed 4.8 X Track quality 100.0 % Test CRC 9DD5B090 Copy CRC 9DD5B090 Track not present in AccurateRip database Copy OK

Track 6

Filename C:\EAC Rips\B.O.B - Strange Clouds (2012) [FLAC]\06 - So Good.wav

Peak level 99.9 % Extraction speed 5.0 X Track quality 100.0 % Test CRC 2F02EEDD Copy CRC 2F02EEDD Track not present in AccurateRip database Copy OK

Track 7

Filename C:\EAC Rips\B.O.B - Strange Clouds (2012) [FLAC]\07 - Play For Keeps.wav

Pre-gap length 0:00:01.10

Peak level 99.8 % Extraction speed 5.2 X Track quality 100.0 % Test CRC EC4DCE9C Copy CRC EC4DCE9C Track not present in AccurateRip database Copy OK

Track 8

Filename C:\EAC Rips\B.O.B - Strange Clouds (2012) [FLAC]\08 - Arena (Feat. Chris Brown & T.I.).wav

Peak level 94.5 % Extraction speed 4.7 X Track quality 99.9 % Test CRC 39586C86 Copy CRC 39586C86 Track not present in AccurateRip database Copy OK

Track 9

Filename C:\EAC Rips\B.O.B - Strange Clouds (2012) [FLAC]\09 - Out Of My Mind (Feat. Nicki Minaj).wav

Peak level 99.9 % Extraction speed 5.7 X Track quality 100.0 % Test CRC 8492ADC3 Copy CRC 8492ADC3 Track not present in AccurateRip database Copy OK

Track 10

Filename C:\EAC Rips\B.O.B - Strange Clouds (2012) [FLAC]\10 - Never Let You Go (Feat. Ryan Tedder).wav

Peak level 99.9 % Extraction speed 6.0 X Track quality 100.0 % Test CRC B0ED3FE8 Copy CRC B0ED3FE8 Track not present in AccurateRip database Copy OK

Track 11

Filename C:\EAC Rips\B.O.B - Strange Clouds (2012) [FLAC]\11 - Chandelier (Feat. Lauriana Mae).wav

Peak level 99.8 % Extraction speed 6.3 X Track quality 100.0 % Test CRC ECE18738 Copy CRC ECE18738 Track not present in AccurateRip database Copy OK

Track 12

Filename C:\EAC Rips\B.O.B - Strange Clouds (2012) [FLAC]\12 - Circles.wav

Peak level 99.8 % Extraction speed 6.5 X Track quality 100.0 % Test CRC 8D30EC3D Copy CRC 8D30EC3D Track not present in AccurateRip database Copy OK

Track 13

Filename C:\EAC Rips\B.O.B - Strange Clouds (2012) [FLAC]\13 - Just A Sign (Feat. Playboy Tre).wav

Peak level 99.8 % Extraction speed 7.1 X Track quality 100.0 % Test CRC DCFB7CE4 Copy CRC DCFB7CE4 Track not present in AccurateRip database Copy OK

Track 14

Filename C:\EAC Rips\B.O.B - Strange Clouds (2012) [FLAC]\14 - Castles (Feat. Trey Songz).wav

Peak level 99.9 % Extraction speed 6.9 X Track quality 100.0 % Test CRC 5C4EA34F Copy CRC 5C4EA34F Track not present in AccurateRip database Copy OK

Track 15

Filename C:\EAC Rips\B.O.B - Strange Clouds (2012) [FLAC]\15 - Where Are You (B.O.B vs. Bobby Ray).wav

Peak level 99.8 % Extraction speed 7.3 X Track quality 100.0 % Test CRC E606CE92 Copy CRC E606CE92 Track not present in AccurateRip database Copy OK

None of the tracks are present in the AccurateRip database

No errors occurred

End of status report

---- CUETools DB Plugin V2.1.3

[CTDB TOCID: uOxLxwFY1itD1VFnM4k2VLOFti4-] disk not present in database, Submit result: uOxLxwFY1itD1VFnM4k2VLOFti4- has been uploaded

==== Log checksum 7A38329239AAB3E15D98C253EB132A023B9D26309E1025FCA0996CFFA4EBA498 ====

Exact Audio Copy V1.0 beta 3 from 29. August 2011

EAC extraction logfile from 1. May 2012, 10:33

B.O.B / Strange Clouds

Used drive : HL-DT-STBDDVDRW GBC-H20L Adapter: 2 ID: 1

Read mode : SecureUtilize accurate stream : YesDefeat audio cache : YesMake use of C2 pointers : No

Read offset correction : 667Overread into Lead-In and Lead-Out : NoFill up missing offset samples with silence : YesDelete leading and trailing silent blocks : NoNull samples used in CRC calculations : YesUsed interface : Native Win32 interface for Win NT & 2000Gap handling : Appended to previous track

Used output format : User Defined EncoderSelected bitrate : 1024 kBit/sQuality : HighAdd ID3 tag : NoCommand line compressor : C:\Program Files (x86)\Exact Audio Copy\Flac\flac.exeAdditional command line options : -8 -V -T "ARTIST=%artist%" -T "TITLE=%title%" -T "ALBUM=%albumtitle%" -T "DATE=%year%" -T "TRACKNUMBER=%tracknr%" -T "GENRE=%genre%" -T "PERFORMER=%albuminterpret%" -T "COMPOSER=%composer%" %haslyrics%--tag-from-file=LYRICS="%lyricsfile%"%haslyrics% -T "ALBUMARTIST=%albumartist%" -T "DISCNUMBER=%cdnumber%" -T "TOTALDISCS=%totalcds%" -T "TOTALTRACKS=%numtracks%" -T "COMMENT=%comment%" %source% -o %dest%

TOC of the extracted CD

Track | Start | Length | Start sector | End sector --------------------------------------------------------- 1 | 0:00.00 | 4:04.14 | 0 | 18313 2 | 4:04.14 | 4:04.60 | 18314 | 36673 3 | 8:08.74 | 3:27.29 | 36674 | 52227 4 | 11:36.28 | 3:46.58 | 52228 | 69235 5 | 15:23.11 | 4:42.18 | 69236 | 90403

Track 1

Filename C:\EAC Rips\B.O.B - Strange Clouds (2012) [FLAC]\01 - MJ (Feat. Nelly).wav

Pre-gap length 0:00:02.00

Peak level 99.8 % Extraction speed 3.6 X Track quality 100.0 % Test CRC 570E1E0F Copy CRC 570E1E0F Track not present in AccurateRip database Copy OK

Track 2

Filename C:\EAC Rips\B.O.B - Strange Clouds (2012) [FLAC]\02 - Back It Up For Bobby.wav

Peak level 99.8 % Extraction speed 4.0 X Track quality 100.0 % Test CRC 9AF8FADA Copy CRC 9AF8FADA Track not present in AccurateRip database Copy OK

Track 3

Filename C:\EAC Rips\B.O.B - Strange Clouds (2012) [FLAC]\03 - What Are We Doing.wav

Peak level 99.8 % Extraction speed 4.1 X Track quality 100.0 % Test CRC B598D978 Copy CRC B598D978 Track not present in AccurateRip database Copy OK

Track 4

Filename C:\EAC Rips\B.O.B - Strange Clouds (2012) [FLAC]\04 - Guest List (Feat. Roscoe Dash).wav

Peak level 99.8 % Extraction speed 4.5 X Track quality 100.0 % Test CRC DE8625E0 Copy CRC DE8625E0 Track not present in AccurateRip database Copy OK

Track 5

Filename C:\EAC Rips\B.O.B - Strange Clouds (2012) [FLAC]\05 - Ms. Professional.wav

Peak level 99.8 % Extraction speed 4.3 X Track quality 99.9 % Test CRC F4B10A84 Copy CRC F4B10A84 Track not present in AccurateRip database Copy OK

None of the tracks are present in the AccurateRip database

No errors occurred

End of status report

---- CUETools DB Plugin V2.1.3

[CTDB TOCID: _GcA_WUysXAFSX8S.hvnFbuLZSA-] found, Submit result: already submitted[5d4a75a7] (1/1) Accurately ripped

==== Log checksum 939E063DD8B433A03BCCA7545177D20187B12207974EF362C36609A5CB50E8CB ====


Трекер:  [ 07-Май-2012 07:18 ]

  

Скачать .torrent

Размер .torrent файла 12 KB


Размер: 577 MB
Хэш (hash) релиза: 68a4445d42fa642b9191ae17633cfce62f498c2c

Еще никто не оставлял запись к записи скачать торрент B.o.B - Strange Clouds . Будь первым!

!Обратная связь