Скачать через торрент Oasis - Wonderwall - 1995 бесплатно русская версия torrent активатор

Если у вас наблюдаются проблемы со скриншотами, переходом по ссылками, скачиванием торрентов - проблемы в блокировщике рекламы AdBlock. #хорошегоДня!


Статистика раздачи
Размер:  147 MB   |    Зарегистрирован:  5 лет 5 месяцев   |    .torrent скачан:  36 раз   |   
Раздают:  1  
   
Загрузка...
 
Автор Сообщение

Galfimbul

avatar Galfimbul


Oasis - Wonderwall

Год: 1995
Страна: UK
Страна-производитель диска: Austria
Жанр: BritPop
Тип издания: сингл
Издатель (лейбл): Helter Skelter
Номер по каталогу: HES 662507 2
Наличие сканов в содержимом раздачи: нет
Продолжительность: 00:19:42
Тексты: вшиты
Кодек: ALAC
Программа-риповщик : foobar2000 + iTunes (lossless)
Битрейт: lossless

Треклист:
1 Wonderwall 4:19
2 Round Are Way 5:42
3 The Swamp Song 4:19 Guitar, Harmonica - Paul Weller
4 The Master Plan 5:23 Guitar - Paul Weller
  
Exact Audio Copy V0.99 prebeta 5 from 4. May 2009EAC extraction logfile from 6. July 2010, 6:55Oasis / WonderwallUsed drive : HL-DT-STDVDRAM GSA-H12L Adapter: 0 ID: 1Read mode : SecureUtilize accurate stream : YesDefeat audio cache : YesMake use of C2 pointers : NoRead offset correction : 667Overread into Lead-In and Lead-Out : NoFill up missing offset samples with silence : YesDelete leading and trailing silent blocks : NoNull samples used in CRC calculations : YesUsed interface : Installed external ASPI interfaceGap handling : Appended to previous trackUsed output format : User Defined EncoderSelected bitrate : 1024 kBit/sQuality : HighAdd ID3 tag : YesCommand line compressor : C:\Programme\FLAC\flac.exeAdditional command line options : -8 -T "Artist=%a" -T "Title=%t" -T "Album=%g" -T "Date=%y" -T "Tracknumber=%n" -T "Genre=%m" %s -o %dTOC of the extracted CD Track | Start | Length | Start sector | End sector --------------------------------------------------------- 1 | 0:00.00 | 4:18.32 | 0 | 19381 2 | 4:18.32 | 5:42.23 | 19382 | 45054 3 | 10:00.55 | 4:19.05 | 45055 | 64484 4 | 14:19.60 | 5:22.27 | 64485 | 88661Track 1 Filename V:\INCOMING\LOSSLESS\ZZZ-EAC\01 Wonderwall.wav Pre-gap length 0:00:02.00 Peak level 97.0 % Track quality 100.0 % Test CRC C973F963 Copy CRC C973F963 Accurately ripped (confidence 18) [33320374] Copy OKTrack 2 Filename V:\INCOMING\LOSSLESS\ZZZ-EAC\02 Round Are Way.wav Peak level 97.7 % Track quality 100.0 % Test CRC CE76F097 Copy CRC CE76F097 Accurately ripped (confidence 18) [6F361F23] Copy OKTrack 3 Filename V:\INCOMING\LOSSLESS\ZZZ-EAC\03 The Swamp Song.wav Peak level 97.7 % Track quality 100.0 % Test CRC 1D224E41 Copy CRC 1D224E41 Accurately ripped (confidence 18) [9052C0B0] Copy OKTrack 4 Filename V:\INCOMING\LOSSLESS\ZZZ-EAC\04 The Masterplan.wav Peak level 97.7 % Track quality 100.0 % Test CRC 4D180658 Copy CRC 4D180658 Accurately ripped (confidence 18) [0B5D4130] Copy OKAll tracks accurately rippedNo errors occurredEnd of status report
  
AUDIOCHECKER v2.0 beta (build 457) - by Dester - <a href="mailto:opdester@freemail.hu" class="postLink">opdester@freemail.hu</a>~~~~~~~~~~~~~~~~~~~~~~~~~~~~~~~~~~-=== DO NOT EDIT THIS FILE! ===-Path: ...\Oasis - Wonderwall MAXI (Helter Skelter HES 662507 2) (EU 1995)1 -=- 01 Wonderwall.flac -=- CDDA (100%)2 -=- 02 Round Are Way.flac -=- CDDA (99%)3 -=- 03 The Swamp Song.flac -=- CDDA (100%)4 -=- 04 The Masterplan.flac -=- CDDA (100%)Summary 99,75% CDDA74428772


Трекер:  [ 07-Май-2012 07:19 ]

  

Скачать .torrent

Размер .torrent файла 12 KB


Размер: 147 MB
Хэш (hash) релиза: 1b527112b52c522060b97040b8db2660b8c44f88

Еще никто не оставлял запись к записи скачать торрент Oasis - Wonderwall - 1995 . Будь первым!

!Обратная связь