Скачать через торрент Grieg, Schumann Григ, Шуман - Piano Concertos бесплатно русская версия torrent активатор

Если у вас наблюдаются проблемы со скриншотами, переходом по ссылками, скачиванием торрентов - проблемы в блокировщике рекламы AdBlock. #хорошегоДня!


Статистика раздачи
Размер:  206 MB   |    Зарегистрирован:  5 лет 5 месяцев   |    .torrent скачан:  42 раза   |   
Раздают:  1  
   
Загрузка...
 
Автор Сообщение

Galfimbul

avatar Galfimbul


Grieg, Schumann - Piano Concertos

Год: 1988
Страна: Hungary
Страна-производитель диска: W.Germany
Жанр: Classical
Тип издания: оригинал
Издатель (лейбл): Naxos
Номер по каталогу: 8.550118
Наличие сканов в содержимом раздачи: нет
Продолжительность: 00:57:40
Тексты: не требуются
Кодек: ALAC
Программа-риповщик : foobar2000 + iTunes (lossless)
Битрейт: lossless

Треклист:
Grieg: Piano Concerto in A Minor Op.16
01. Allegro molto moderato (12:00)
02. Adagio (5:48)
03. Allegro moderato molto e marcato / Quasi presto / Andante maestoso (9:32)
Schumann: Piano Concerto in A Minor Op. 54
04. Allegro affettuoso (14:04)
05. Intermezzo / Andantino grazioso / Allegro vivace (16:16)
Исполнители:
Jenő Jandó - piano
András Ligeti - conductor
Budapest Symphony Orchestra
  
Exact Audio Copy V1.0 beta 1 from 15. November 2010EAC extraction logfile from 23. October 2011, 9:55Grieg, Schumann / Piano Concertos {NAXOS 8-550118}Used drive : ASUS DRW-1608P3S Adapter: 0 ID: 1Read mode : SecureUtilize accurate stream : YesDefeat audio cache : YesMake use of C2 pointers : NoRead offset correction : 48Overread into Lead-In and Lead-Out : NoFill up missing offset samples with silence : YesDelete leading and trailing silent blocks : NoNull samples used in CRC calculations : YesUsed interface : Native Win32 interface for Win NT & 2000Gap handling : Appended to previous trackUsed output format : Internal WAV RoutinesSample format : 44.100 Hz; 16 Bit; StereoTOC of the extracted CD Track | Start | Length | Start sector | End sector --------------------------------------------------------- 1 | 0:00.00 | 12:00.23 | 0 | 54022 2 | 12:00.23 | 5:48.00 | 54023 | 80122 3 | 17:48.23 | 9:31.65 | 80123 | 123012 4 | 27:20.13 | 14:03.65 | 123013 | 186302 5 | 41:24.03 | 16:16.15 | 186303 | 259517Track 1 Filename H:\EAC@Oceandrop Rips\Grieg, Schumann - Piano Concertos {NAXOS 8-550118}\01 - Piano Concerto No.1 in A Minor Op.16 - I Allegro molto moderato.wav Pre-gap length 0:00:02.00 Peak level 93.2 % Extraction speed 5.3 X Track quality 100.0 % Test CRC 14C29E8B Copy CRC 14C29E8B Accurately ripped (confidence 2) [D4AF0FB6] Copy OKTrack 2 Filename H:\EAC@Oceandrop Rips\Grieg, Schumann - Piano Concertos {NAXOS 8-550118}\02 - Piano Concerto No.1 in A Minor Op.16 - II Adagio.wav Peak level 66.4 % Extraction speed 5.5 X Track quality 99.9 % Test CRC 2B1EB414 Copy CRC 2B1EB414 Accurately ripped (confidence 2) [758D1EC4] Copy OKTrack 3 Filename H:\EAC@Oceandrop Rips\Grieg, Schumann - Piano Concertos {NAXOS 8-550118}\03 - Piano Concerto No.1 in A Minor Op.16 - III Allegro moderato molto e marcato - Quasi presto - Andante maestoso.wav Peak level 83.6 % Extraction speed 7.0 X Track quality 100.0 % Test CRC 8331BAD1 Copy CRC 8331BAD1 Accurately ripped (confidence 3) [A5ED7570] Copy OKTrack 4 Filename H:\EAC@Oceandrop Rips\Grieg, Schumann - Piano Concertos {NAXOS 8-550118}\04 - Piano Concerto in A Minor Op. 54 - I Allegro affettuoso.wav Pre-gap length 0:00:09.68 Peak level 97.7 % Extraction speed 8.0 X Track quality 100.0 % Test CRC D58211B0 Copy CRC D58211B0 Accurately ripped (confidence 3) [7B6EF5DB] Copy OKTrack 5 Filename H:\EAC@Oceandrop Rips\Grieg, Schumann - Piano Concertos {NAXOS 8-550118}\05 - Piano Concerto in A Minor Op.54 - II Intermezzo - Andantino grazioso - Allegro vivace.wav Peak level 80.8 % Extraction speed 9.1 X Track quality 100.0 % Test CRC 006F0569 Copy CRC 006F0569 Accurately ripped (confidence 3) [2511F391] Copy OKAll tracks accurately rippedNo errors occurredEnd of status report==== Log checksum 785E4B8269729BFD0E0A8017AB2C942A30863EAE80C12A2740D3B3A8E6514A65 ====
  
AUDIOCHECKER v2.0 beta (build 457) - by Dester - <a href="mailto:opdester@freemail.hu" class="postLink">opdester@freemail.hu</a>~~~~~~~~~~~~~~~~~~~~~~~~~~~~~~~~~~-=== DO NOT EDIT THIS FILE! ===-Path: ...\Grieg, Schumann - Piano Concertos 19881 -=- 03 - Piano Concerto No.1 in A Minor Op.16 - III Allegro moderato molto e marcato - Quasi presto - Andante maestoso.ape -=- CDDA (100%)2 -=- 04 - Piano Concerto in A Minor Op. 54 - I Allegro affettuoso.ape -=- CDDA (100%)3 -=- 05 - Piano Concerto in A Minor Op.54 - II Intermezzo - Andantino grazioso - Allegro vivace.ape -=- CDDA (100%)4 -=- 01 - Piano Concerto No.1 in A Minor Op.16 - I Allegro molto moderato.ape -=- CDDA (100%)5 -=- 02 - Piano Concerto No.1 in A Minor Op.16 - II Adagio.ape -=- CDDA (100%)6 -=- 03 - Piano Concerto No.1 in A Minor Op.16 - III Allegro moderato molto e marcato - Quasi presto - Andante maestoso.ape -=- CDDA (100%)7 -=- 04 - Piano Concerto in A Minor Op. 54 - I Allegro affettuoso.ape -=- CDDA (100%)8 -=- 05 - Piano Concerto in A Minor Op.54 - II Intermezzo - Andantino grazioso - Allegro vivace.ape -=- CDDA (100%)Summary 100,00% CDDA217953316


Трекер:  [ 07-Май-2012 07:21 ]

  

Скачать .torrent

Размер .torrent файла 17 KB


Размер: 206 MB
Хэш (hash) релиза: 583f05c9b815b8b65e89515dcf456e16b3789ce6

Еще никто не оставлял запись к записи скачать торрент Grieg, Schumann Григ, Шуман - Piano Concertos . Будь первым!

!Обратная связь