Скачать через торрент Стрелок с Черной скалСтрелок из скал бесплатно Аниме Все серии на русском torrent

Если у вас наблюдаются проблемы со скриншотами, переходом по ссылками, скачиванием торрентов - проблемы в блокировщике рекламы AdBlock. #хорошегоДня!


Статистика раздачи
Размер:  6.81 GB   |    Зарегистрирован:  5 лет 4 месяца   |    .torrent скачан:  80 раз   |   
Раздают:  1  
   
Загрузка...
 
Автор Сообщение

L


Стрелок с Черной скалы
Стрелок из скал
Black Rock Shooter
Страна: Япония
Год выпуска: 2012 г.
Жанр: приключения
Тип: TV
Продолжительность: ~23 минуты
Режиссер: Ёсиока Синобу
Студия:

Описание: Лучшие подруги в одном мире, заклятые враги в другом… Через что придется пройти Мато Курой и ее альтер-эго Блэк Рок Шутер, чтобы спасти самого дорогого ей человека, Ёми Таканаси, от самой себя, от Хозяйки Мертвых? Повествование ведется параллельно из мира нашего и мира альтернативного, где лучшие подруги существуют в виде Блэк Рок Шутера и Хозяйки Мертвых. Наш мир наполнен чувствами и переживаниями, альтернативный – боями и красочными пейзажами. Переломный момент наступает, когда Мато бросается вслед за пропавшей Ёми…

© MIKron, World Art

Доп. информация: Универсальная раздача с лучшим на сегодня видео. Если найдёте рассинхрон в сабах или озвучке - пишите, исправим.

Качество: HDTVRip
Тип релиза: Без хардсаба
Формат видео: MP4
Наличие линковки: Нет
Автор рипа: kiki
Релиз: YSS releasers
Видео: MPEG4 Video (H264) 1280x720 ~4300 Kbps 23.976 fps
Аудио:

AAC 48000Hz stereo ~150 kbps
AAC 48000Hz stereo ~192 kbps трёхголосая (внешним файлом) [Eladiel & Absurd & Silv] семпл
MP3 48000Hz stereo ~320 kbps одноголосая (внешним файлом) [metalrus]
AAC 48000Hz stereo ~192 kbps одноголосая (внешним файлом) [Ms Наташа] семпл
MP3 48000Hz stereo ~192 kbps одноголосая (внешним файлом) [PsyX] семпл

Субтитры:

внешние, ASS; Перевод: [Advantage]
внешние, ASS; Перевод: [Dreamers Team]
внешние, ASS; Перевод: [Firegorn Team]
внешние, ASS; Перевод: [Hyakka Ryoran & Co]
внешние, ASS; Перевод: [Pengui-subs]
внешние, ASS; Перевод: [Stan WarHammer, Nesitach, Asca]
  
GeneralComplete name : J:\Downloads\Black Rock Shooter\[kiki] BLACK ROCK SHOOTER - 01 (CX 1280x720 x264 AAC).mp4Format : MPEG-4Format profile : Base MediaCodec ID : isomFile size : 712 MiBDuration : 22mn 54sOverall bit rate mode : VariableOverall bit rate : 4 346 KbpsEncoded date : UTC 2012-02-07 08:02:06Tagged date : UTC 2012-02-07 08:02:06

VideoID : 1Format : AVCFormat/Info : Advanced Video CodecFormat profile : <a href="mailto:High@L4.1Format" class="postLink">High@L4.1Format</a> settings, CABAC : YesFormat settings, ReFrames : 4 framesCodec ID : avc1Codec ID/Info : Advanced Video CodingDuration : 22mn 54sBit rate : 4 217 KbpsMaximum bit rate : 17.0 MbpsWidth : 1 280 pixelsHeight : 720 pixelsDisplay aspect ratio : 16:9Frame rate mode : VariableFrame rate : 24.411 fpsOriginal frame rate : 23.976 fpsMinimum frame rate : 23.976 fpsMaximum frame rate : 119.880 fpsColor space : YUVChroma subsampling : 4:2:0Bit depth : 8 bitsScan type : ProgressiveBits/(Pixel*Frame) : 0.187Stream size : 691 MiB (97%)Writing library : x264 core 115 r1936+503 e048045Encoding settings : cabac=1 / ref=4 / deblock=1:-2:-2 / analyse=0x3:0x133 / me=umh / subme=10 / psy=1 / fade_compensate=0.00 / psy_rd=1.00:0.00 / mixed_ref=1 / me_range=24 / chroma_me=1 / trellis=2 / 8x8dct=1 / cqm=0 / deadzone=22,11 / fast_pskip=0 / chroma_qp_offset=-2 / threads=6 / sliced_threads=0 / nr=0 / decimate=0 / interlaced=0 / bluray_compat=0 / constrained_intra=0 / fgo=0 / bframes=6 / b_pyramid=2 / b_adapt=2 / b_bias=0 / direct=3 / weightb=1 / open_gop=0 / weightp=2 / keyint=250 / keyint_min=25 / scenecut=40 / intra_refresh=0 / rc=crf / mbtree=0 / crf=16.0 / qcomp=0.60 / qpmin=10 / qpmax=51 / qpstep=4 / ip_ratio=1.40 / pb_ratio=1.30 / aq=1:0.60Encoded date : UTC 2012-02-07 03:37:51Tagged date : UTC 2012-02-07 08:02:21Material_Duration : 1374865Material_StreamSize : 724779949Material_FrameCount : 33562

AudioID : 2Format : AACFormat/Info : Advanced Audio CodecFormat profile : LCCodec ID : 40Duration : 22mn 54sBit rate mode : VariableBit rate : 125 KbpsMaximum bit rate : 144 KbpsChannel(s) : 2 channelsChannel positions : Front: L RSampling rate : 48.0 KHzCompression mode : LossyStream size : 20.4 MiB (3%)Encoded date : UTC 2012-02-07 08:02:19Tagged date : UTC 2012-02-07 08:02:21
01. How Much More Do I Have to Scream?
02. Dawn Envelopes the Sky
03. Tears Held Back Threaten to Spill Over
04. The World I Dreamed of One Day Closes Up
Q: Чем смотреть?
A: Для просмотра рекомендуется Media Player Classic с установленным пакетом кодеков K-Lite (скачать с оф. сайта).
Q: Как посмотреть с русской озвучкой?
A: Перекинуть файлы .mka(.mp3/.aac) из папки "RUS Sound" в одну папку с видео и переключить звуковую дорожку в плеере при просмотре. Как это сделать в разных плеерах подробно описано здесь.
Q: Как посмотреть с субтитрами?
A: Перекинуть файлы .ass (.srt) из папки "RUS Subs" в одну папку с видео. Плеер подгрузит их автоматически.


Трекер:  [ 03-Май-2012 07:56 ]

  

Скачать .torrent

Размер .torrent файла 27 KB


Размер: 6.81 GB
Хэш (hash) релиза: a2f60ac8dde1ffabd7847ed97b856c4baa0ec245
Подписка на обновления:

Торренты, похожие на Стрелок с Черной скалСтрелок из скал скачать торрент

Форум Название Автор Размер S L Добавлен
Аниме | HD Rips ·· Стрелок с Чёрной скалы / Black Rock Shooter (Ёсиока Синобу) [TV] [8 из 8] [без хардсаба] [RUS(ext), JAP+SUB] [2012 г., драма, мистика, BDRip] [1080p] L 2077406683019.35 GB 0 0 1364662450

19:54

30-Мар-13

Аниме | HD Rips ·· Стрелок с Чёрной скалы / Black Rock Shooter (Ёсиока Синобу) [TV] [8 из 8] [без хардсаба] [RUS(ext), JAP+SUB] [2012 г., драма, мистика, BDRip] [720p] L 95462954548.89 GB 0 0 1364662440

19:54

30-Мар-13

Аниме | HD Rips ·· Стрелок с Черной скалы / Black Rock Shooter [TV] [01-08 из 08] [Без хардсаба] [RUS(int), JAP+SUB] [2012 г., Приключения, сёдзё, драма., HDTVRip] [720p] L 36384845403.39 GB 0 0 1364662415

19:53

30-Мар-13

Аниме | HD Rips ·· Стрелок с Черной скалы / Black Rock Shooter [1-8 из 8] [TV] [без хардсаба] [RUS(int), JAP+SUB] [2012, приключения, HDTVRip] [720p] L 34993838153.26 GB 0 0 1364662405

19:53

30-Мар-13

Аниме | DVD ·· Стрелок с Чёрной скалы / Black Rock Shooter (Ёсиока Синобу) [OVA] [1 из 1] [JAP+RUS, SUB] [2010 г., повседневность, драма, мистика, 1xDVD5] [R2J] L 33594060803.13 GB 0 0 1364662388

19:53

30-Мар-13

Аниме | HD Rips ·· Стрелок с Чёрной скалы [ТВ] / Black Rock Shooter (Ёсиока Синобу) [TV] [8 из 8] [без хардсаба] [RUS(ext), JAP+SUB] [2012 г., приключения, HDTVRip] [720p] L 31118931902.9 GB 0 0 1364662374

19:52

30-Мар-13

Аниме | HD Rips ·· Стрелок с Чёрной скалы / Black Rock Shooter (Ёсиока Синобу) [OVA] [1 из 1] [без хардсаба] [RUS(ext), JAP+SUB] [2010 г., повседневность, драма, мистика, BDRip] [720p] L 26147553442.44 GB 0 0 1364662366

19:52

30-Мар-13

Аниме | HD Rips ·· Стрелок с Черной скалы / Black Rock Shooter [1 из 1] [OVA] [без хардсаба] [RUS(int), JAP+SUB] [2010, приключения, BDRip] [720p] L 15180931281.41 GB 0 0 1364662351

19:52

30-Мар-13

Аниме | Rips ·· Стрелок с Чёрной скалы / Black Rock Shooter (Ёсиока Синобу) [OVA] [1 из 1] [Без хардсаба] [RUS(ext),JAP+SUB] [2010 г., приключения, повседневность, махо-сёдзё, DVDRip] L 624131927595 MB 0 0 1364662337

19:52

30-Мар-13

Аниме | HD Rips ·· Стрелок с Черной скалы / Black Rock Shooter [TV] [1-8 из 8] [Без хардсаба] [JAP, RUS(ext), SUB] [2011 г., приключения, сёдзё, драма., HDTVRip] [720p] Galfimbul 36419276113.39 GB 0 0 1343504520

22:42

28-Июл-12

Аниме | Rips ·· Стрелок с Чёрной скалы / Black Rock Shooter [OVA] [1 из 1] [RUS(ext),JAP+SUB] [2010 г., приключения, повседневность, махо-сёдзё, DVDRip][любительская] L 958120275914 MB 0 0 1316936830

10:47

25-Сен-11

Аниме | HD Rips ·· Стрелок с Чёрной скалы / Black Rock Shooter [OVA] [1 из 1] [RUS(ext), JAP+SUB] [2010 г., повседневность, драма, мистика, BDRip] [1080p] [Любительская] Dxe 54584359665.08 GB 0 0 1293351349

11:15

26-Дек-10

Аниме | Blu-Ray и BDRemux ·· Стрелок с Чёрной скалы / Black Rock Shooter [OVA] [1 из 1] [без хардсаба] [RUS(ext), JAP+SUB] [2010 г., повседневность, драма, мистика, BDRemux] [1080p] [Любительская] Dxe 2037514270118.98 GB 0 0 1293214854

21:20

24-Дек-10

Аниме | Rips ·· Стрелок с Чёрной скалы / BLACK ROCK SHOOTER [OVA] [1 из 1] [RUS(int),JAP+SUB] [2010г, повседневность, драма, мистика, DVDRip][Любительская] Nomak 16532745371.54 GB 0 0 1290021460

22:17

17-Ноя-10

Аниме | Rips ·· Стрелок с Чёрной скалы / Black Rock Shooter [OVA] [1 из 1] [RUS(ext), JAP+SUB] [2010 г., повседневность, драма, мистика, DVDRip][Любительская] Nomak 11340461941.06 GB 0 0 1290021374

22:16

17-Ноя-10

Аниме | HD Rips ·· Стрелок из скал [ТВ] / Black Rock Shooter [TV] / Стрёлок с чёрной скалы [TV] [01-08 из 08] [Без хардсаба] [RUS(int), SUB] [2012 г., приключения, HDTVRip] [720p] L 31589586782.94 GB 0 0 1364662384

19:53

30-Мар-13

Еще никто не оставлял запись к записи скачать торрент Стрелок с Черной скалСтрелок из скал . Будь первым!

!Обратная связь