Скачать через торрент Brobdingnagian Bards - Memories of Middle Earth - 2003 бесплатно русская версия torrent активатор

Если у вас наблюдаются проблемы со скриншотами, переходом по ссылками, скачиванием торрентов - проблемы в блокировщике рекламы AdBlock. #хорошегоДня!


Статистика раздачи
Размер:  245 MB   |    Зарегистрирован:  5 лет 5 месяцев   |    .torrent скачан:  25 раз   |   
Раздают:  1  
   
Загрузка...
 
Автор Сообщение

Galfimbul

avatar Galfimbul


Brobdingnagian Bards - Memories of Middle Earth

Год: 2003
Страна: США
Страна-производитель диска: США
Жанр: Celtic / Folk / Tolkien
Тип издания: оригинал
Издатель (лейбл): Mage Records
Наличие сканов в содержимом раздачи: нет
Продолжительность: 00:57:33
Тексты: отсутствуют
Кодек: ALAC
Программа-риповщик : foobar2000 + iTunes (lossless)
Битрейт: lossless
Треклист:
01. Tolkien (The Hobbit & Lord of the Rings)
02. Moria
03. The Heart of Fangorn
04. Hobbit's Dance
05. Lothlorien
06. Like a Hobbit in a Mushroom Field
07. Weathertop
08. Fellowship of the Ring
09. The Ring of Hope
10. Galadriel's Mirror
11. Shadowfax
12. Breaking of the Fellowship
13. Legolas
14. The Grey & the White
15. Now It's Time to Go (Bilbo's Farewell Song)
16. Psychopathic, Chronic, Schizophrenic Gollum Blues
  
Exact Audio Copy V0.99 prebeta 3 from 28. July 2007

EAC extraction logfile from 29. July 2008, 20:15

Brobdingnagian Bards / Memories Of Middle Earth

Used drive : TSSTcorpCD/DVDW SH-S183L Adapter: 3 ID: 0

Read mode : SecureUtilize accurate stream : YesDefeat audio cache : YesMake use of C2 pointers : No

Read offset correction : 6Overread into Lead-In and Lead-Out : NoFill up missing offset samples with silence : YesDelete leading and trailing silent blocks : NoNull samples used in CRC calculations : YesUsed interface : Native Win32 interface for Win NT & 2000Gap handling : Appended to previous track

Used output format : User Defined EncoderSelected bitrate : 128 kBit/sQuality : HighAdd ID3 tag : NoCommand line compressor : C:\Program Files\Exact Audio Copy\Flac\flac.exeAdditional command line options : -V -8 -T "artist=%a" -T "title=%t" -T "album=%g" -T "date=%y" -T "tracknumber=%n" -T "genre=%m" %s

TOC of the extracted CD

Track | Start | Length | Start sector | End sector --------------------------------------------------------- 1 | 0:00.00 | 3:23.02 | 0 | 15226 2 | 3:23.02 | 3:04.00 | 15227 | 29026 3 | 6:27.02 | 3:26.01 | 29027 | 44477 4 | 9:53.03 | 2:38.01 | 44478 | 56328 5 | 12:31.04 | 3:01.65 | 56329 | 69968 6 | 15:32.69 | 3:24.69 | 69969 | 85337 7 | 18:57.63 | 5:48.01 | 85338 | 111438 8 | 24:45.64 | 6:04.05 | 111439 | 138743 9 | 30:49.69 | 4:26.71 | 138744 | 158764 10 | 35:16.65 | 2:02.01 | 158765 | 167915 11 | 37:18.66 | 5:32.58 | 167916 | 192873 12 | 42:51.49 | 4:31.02 | 192874 | 213200 13 | 47:22.51 | 1:53.03 | 213201 | 221678 14 | 49:15.54 | 2:05.72 | 221679 | 231125 15 | 51:21.51 | 1:33.33 | 231126 | 238133 16 | 52:55.09 | 4:38.05 | 238134 | 258988

Track 1

Filename D:\Seed\FLAC\Brobdingnagian Bards\(2003) Memories Of Middle Earth - FLAC\\Brobdingnagian Bards\(2003) Memories Of Middle Earth\01. Tolkien (The Hobbit & Lord Of The Rings).wav

Pre-gap length 0:00:02.00

Peak level 83.4 % Track quality 100.0 % Test CRC 09349688 Copy CRC 09349688 Track not present in AccurateRip database Copy OK

Track 2

Filename D:\Seed\FLAC\Brobdingnagian Bards\(2003) Memories Of Middle Earth - FLAC\\Brobdingnagian Bards\(2003) Memories Of Middle Earth\02. Moria.wav

Peak level 89.2 % Track quality 100.0 % Test CRC 105A6E2B Copy CRC 105A6E2B Track not present in AccurateRip database Copy OK

Track 3

Filename D:\Seed\FLAC\Brobdingnagian Bards\(2003) Memories Of Middle Earth - FLAC\\Brobdingnagian Bards\(2003) Memories Of Middle Earth\03. The Heart Of Fangorn.wav

Peak level 89.2 % Track quality 100.0 % Test CRC 848E8F9B Copy CRC 848E8F9B Track not present in AccurateRip database Copy OK

Track 4

Filename D:\Seed\FLAC\Brobdingnagian Bards\(2003) Memories Of Middle Earth - FLAC\\Brobdingnagian Bards\(2003) Memories Of Middle Earth\04. Hobbit's Dance.wav

Peak level 89.2 % Track quality 100.0 % Test CRC 4A4A585E Copy CRC 4A4A585E Track not present in AccurateRip database Copy OK

Track 5

Filename D:\Seed\FLAC\Brobdingnagian Bards\(2003) Memories Of Middle Earth - FLAC\\Brobdingnagian Bards\(2003) Memories Of Middle Earth\05. Lothlorien.wav

Peak level 89.2 % Track quality 100.0 % Test CRC 9A4EBBC4 Copy CRC 9A4EBBC4 Track not present in AccurateRip database Copy OK

Track 6

Filename D:\Seed\FLAC\Brobdingnagian Bards\(2003) Memories Of Middle Earth - FLAC\\Brobdingnagian Bards\(2003) Memories Of Middle Earth\06. Like A Hobbit In A Mushroom Field.wav

Peak level 89.2 % Track quality 100.0 % Test CRC A5178C8A Copy CRC A5178C8A Track not present in AccurateRip database Copy OK

Track 7

Filename D:\Seed\FLAC\Brobdingnagian Bards\(2003) Memories Of Middle Earth - FLAC\\Brobdingnagian Bards\(2003) Memories Of Middle Earth\07. Weathertop.wav

Peak level 89.2 % Track quality 99.9 % Test CRC 3BB41D4D Copy CRC 3BB41D4D Track not present in AccurateRip database Copy OK

Track 8

Filename D:\Seed\FLAC\Brobdingnagian Bards\(2003) Memories Of Middle Earth - FLAC\\Brobdingnagian Bards\(2003) Memories Of Middle Earth\08. Fellowship Of The Rings.wav

Peak level 90.1 % Track quality 100.0 % Test CRC DB24F7B6 Copy CRC DB24F7B6 Track not present in AccurateRip database Copy OK

Track 9

Filename D:\Seed\FLAC\Brobdingnagian Bards\(2003) Memories Of Middle Earth - FLAC\\Brobdingnagian Bards\(2003) Memories Of Middle Earth\09. The Ring Of Hope.wav

Peak level 89.8 % Track quality 99.9 % Test CRC 98DB1819 Copy CRC 98DB1819 Track not present in AccurateRip database Copy OK

Track 10

Filename D:\Seed\FLAC\Brobdingnagian Bards\(2003) Memories Of Middle Earth - FLAC\\Brobdingnagian Bards\(2003) Memories Of Middle Earth\10. Galadriel's Mirror.wav

Peak level 46.9 % Track quality 100.0 % Test CRC 69371FFE Copy CRC 69371FFE Track not present in AccurateRip database Copy OK

Track 11

Filename D:\Seed\FLAC\Brobdingnagian Bards\(2003) Memories Of Middle Earth - FLAC\\Brobdingnagian Bards\(2003) Memories Of Middle Earth\11. Shadowfax.wav

Peak level 89.2 % Track quality 100.0 % Test CRC 1690F150 Copy CRC 1690F150 Track not present in AccurateRip database Copy OK

Track 12

Filename D:\Seed\FLAC\Brobdingnagian Bards\(2003) Memories Of Middle Earth - FLAC\\Brobdingnagian Bards\(2003) Memories Of Middle Earth\12. Breaking Of The Fellowship.wav

Peak level 79.5 % Track quality 100.0 % Test CRC 3FC6CC1F Copy CRC 3FC6CC1F Track not present in AccurateRip database Copy OK

Track 13

Filename D:\Seed\FLAC\Brobdingnagian Bards\(2003) Memories Of Middle Earth - FLAC\\Brobdingnagian Bards\(2003) Memories Of Middle Earth\13. Legolas.wav

Peak level 89.2 % Track quality 100.0 % Test CRC E0D12A60 Copy CRC E0D12A60 Track not present in AccurateRip database Copy OK

Track 14

Filename D:\Seed\FLAC\Brobdingnagian Bards\(2003) Memories Of Middle Earth - FLAC\\Brobdingnagian Bards\(2003) Memories Of Middle Earth\14. The Grey & The White.wav

Peak level 89.2 % Track quality 100.0 % Test CRC 3F9F8B54 Copy CRC 3F9F8B54 Track not present in AccurateRip database Copy OK

Track 15

Filename D:\Seed\FLAC\Brobdingnagian Bards\(2003) Memories Of Middle Earth - FLAC\\Brobdingnagian Bards\(2003) Memories Of Middle Earth\15. Now It's Time To Go (Bilbo's Farewell Song).wav

Peak level 79.5 % Track quality 100.0 % Test CRC BCB1B46F Copy CRC BCB1B46F Track not present in AccurateRip database Copy OK

Track 16

Filename D:\Seed\FLAC\Brobdingnagian Bards\(2003) Memories Of Middle Earth - FLAC\\Brobdingnagian Bards\(2003) Memories Of Middle Earth\16. Psychopathic, Chronic, Schizophrenic Gollum Blues.wav

Peak level 89.2 % Track quality 100.0 % Test CRC 77C6BB66 Copy CRC 77C6BB66 Track not present in AccurateRip database Copy OK

None of the tracks are present in the AccurateRip database

No errors occurred

End of status report
  
Started at: пятница, 20. 04. 2012. - 20:31.4116 files found

01 -===- F:\Music lossless\1\Brobdingnagian Bards - Memories Of Middle Earth (2003)\01. Tolkien (The Hobbit & Lord Of The Rings).flac Extracted successfully Conclusion: this track is CDDA with probability 76% Tempfile successfully deleted.

02 -===- F:\Music lossless\1\Brobdingnagian Bards - Memories Of Middle Earth (2003)\02. Moria.flac Extracted successfully Conclusion: this track is CDDA with probability 100% Tempfile successfully deleted.

03 -===- F:\Music lossless\1\Brobdingnagian Bards - Memories Of Middle Earth (2003)\03. The Heart Of Fangorn.flac Extracted successfully Conclusion: this track is CDDA with probability 100% Tempfile successfully deleted.

04 -===- F:\Music lossless\1\Brobdingnagian Bards - Memories Of Middle Earth (2003)\04. Hobbit's Dance.flac Extracted successfully Conclusion: this track is CDDA with probability 100% Tempfile successfully deleted.

05 -===- F:\Music lossless\1\Brobdingnagian Bards - Memories Of Middle Earth (2003)\05. Lothlorien.flac Extracted successfully Conclusion: this track is CDDA with probability 100% Tempfile successfully deleted.

06 -===- F:\Music lossless\1\Brobdingnagian Bards - Memories Of Middle Earth (2003)\06. Like A Hobbit In A Mushroom Field.flac Extracted successfully Conclusion: this track is CDDA with probability 100% Tempfile successfully deleted.

07 -===- F:\Music lossless\1\Brobdingnagian Bards - Memories Of Middle Earth (2003)\07. Weathertop.flac Extracted successfully Conclusion: this track is CDDA with probability 100% Tempfile successfully deleted.

08 -===- F:\Music lossless\1\Brobdingnagian Bards - Memories Of Middle Earth (2003)\08. Fellowship Of The Rings.flac Extracted successfully Conclusion: this track is CDDA with probability 100% Tempfile successfully deleted.

09 -===- F:\Music lossless\1\Brobdingnagian Bards - Memories Of Middle Earth (2003)\09. The Ring Of Hope.flac Extracted successfully Conclusion: this track is CDDA with probability 87% Tempfile successfully deleted.

10 -===- F:\Music lossless\1\Brobdingnagian Bards - Memories Of Middle Earth (2003)\10. Galadriel's Mirror.flac Extracted successfully Conclusion: this track is CDDA with probability 100% Tempfile successfully deleted.

11 -===- F:\Music lossless\1\Brobdingnagian Bards - Memories Of Middle Earth (2003)\11. Shadowfax.flac Extracted successfully Conclusion: this track is CDDA with probability 100% Tempfile successfully deleted.

12 -===- F:\Music lossless\1\Brobdingnagian Bards - Memories Of Middle Earth (2003)\12. Breaking Of The Fellowship.flac Extracted successfully Conclusion: this track is CDDA with probability 100% Tempfile successfully deleted.

13 -===- F:\Music lossless\1\Brobdingnagian Bards - Memories Of Middle Earth (2003)\13. Legolas.flac Extracted successfully Conclusion: this track is CDDA with probability 100% Tempfile successfully deleted.

14 -===- F:\Music lossless\1\Brobdingnagian Bards - Memories Of Middle Earth (2003)\14. The Grey & The White.flac Extracted successfully Conclusion: this track is CDDA with probability 100% Tempfile successfully deleted.

15 -===- F:\Music lossless\1\Brobdingnagian Bards - Memories Of Middle Earth (2003)\15. Now It's Time To Go (Bilbo's Farewell Song).flac Extracted successfully Conclusion: this track is CDDA with probability 100% Tempfile successfully deleted.

16 -===- F:\Music lossless\1\Brobdingnagian Bards - Memories Of Middle Earth (2003)\16. Psychopathic, Chronic, Schizophrenic Gollum Blues.flac Extracted successfully Conclusion: this track is CDDA with probability 100% Tempfile successfully deleted.

Finished at: пятница, 20. 04. 2012. - 20:35.57 (operation time: 0:04.15)


Трекер:  [ 07-Май-2012 07:21 ]

  

Скачать .torrent

Размер .torrent файла 20 KB


Размер: 245 MB
Хэш (hash) релиза: 3e84bb62fa895dd0c11611e1ccb3b5dae0dbe8ac

Еще никто не оставлял запись к записи скачать торрент Brobdingnagian Bards - Memories of Middle Earth - 2003 . Будь первым!

!Обратная связь