Скачать через торрент VA - Шуберт. Гении классической музыки - 2012 бесплатно русская версия torrent активатор

Если у вас наблюдаются проблемы со скриншотами, переходом по ссылками, скачиванием торрентов - проблемы в блокировщике рекламы AdBlock. #хорошегоДня!


Статистика раздачи
Размер:  469 MB   |    Зарегистрирован:  5 лет 5 месяцев   |    .torrent скачан:  109 раз   |   
Раздают:  1  
   
Загрузка...
 
Автор Сообщение

Galfimbul

avatar Galfimbul


VA - Шуберт. Гении классической музыки

Год: 2012
Страна: Австрия
Страна-производитель диска: Беларусь
Жанр: Classical
Тип издания: сборник
Издатель (лейбл): ВИГМА
Номер по каталогу: 3740
Наличие сканов в содержимом раздачи: да
Продолжительность: 01:14:25
Тексты: не требуются
Кодек: ALAC
Программа-риповщик : foobar2000 + iTunes (lossless)
Битрейт: lossless
Источник: Собственный CD
Треклист:
01. Ave Maria, D839
02. Серенада ре минор, D957
03. Allegretto, 'Октет для духовых и струнных'
04. Антракт №3, 'Розамунда'
05. Allegro vivace, фортепианный квинтет 'Форель'
06. Andante, Симфония №2
07. Andante, Симфония №4
08. Andante, Симфония №5
09. Andante, Симфония №6
10. Allegro Moderato, Симфония №8 'Неоконченная'
11. Impromtus op. posth D935
  
Exact Audio Copy V0.99 prebeta 5 from 4. May 2009

Отчёт EAC об извлечении, выполненном 19. апреля 2012, 19:56

Ф. Шуберт / Шуберт. Гении классической музыки

Дисковод: _NEC DVD_RW ND-3550A Adapter: 0 ID: 0

Режим чтения : ДостоверностьИспользование точного потока : ДаОтключение кэша аудио : ДаИспользование указателей C2 : Нет

Коррекция смещения при чтении : 48Способность читать области Lead-in и Lead-out : НетЗаполнение пропущенных сэмплов тишиной : ДаУдаление блоков с тишиной в начале и конце : НетПри вычислениях CRC использовались нулевые сэмплы : ДаИнтерфейс : Установленный внешний ASPI-интерфейс

Выходной формат : Внутренние WAV-операцииФормат сэмплов : 44.100 Гц; 16 бит; стерео

TOC извлечённого CD

Трек | Старт | Длительность | Начальный сектор | Конечный сектор --------------------------------------------------------------------- 1 | 0:00.00 | 5:03.71 | 0 | 22795 2 | 5:03.71 | 4:09.60 | 22796 | 41530 3 | 9:13.56 | 3:36.06 | 41531 | 57736 4 | 12:49.62 | 5:36.51 | 57737 | 82987 5 | 18:26.38 | 13:39.47 | 82988 | 144459 6 | 32:06.10 | 7:31.05 | 144460 | 178289 7 | 39:37.15 | 4:13.70 | 178290 | 197334 8 | 43:51.10 | 5:15.14 | 197335 | 220973 9 | 49:06.24 | 3:08.51 | 220974 | 235124 10 | 52:15.00 | 13:24.44 | 235125 | 295468 11 | 65:39.44 | 8:45.38 | 295469 | 334881

Характеристики диапазона извлечения и сообщения об ошибках

Выбранный диапазон

Имя файла F:\Music lossless\Ф. Шуберт - Шуберт. Гении классической музыки.wav

Пиковый уровень 100.0 % Качество диапазона 99.9 % CRC теста 4BD98AFE CRC копии 4BD98AFE Копирование... OK

Ошибок не произошло

AccurateRip: сводка

Трек 1 нет в базе данныхТрек 2 нет в базе данныхТрек 3 нет в базе данныхТрек 4 нет в базе данныхТрек 5 нет в базе данныхТрек 6 нет в базе данныхТрек 7 нет в базе данныхТрек 8 нет в базе данныхТрек 9 нет в базе данныхТрек 10 нет в базе данныхТрек 11 нет в базе данных

Ни одного трека нет в базе AccurateRip

Конец отчёта
  
Started at: пятница, 20. 04. 2012. - 23:11.531 file found

1 -===- F:\Music lossless\Шуберт. Гении классической музыки\Ф. Шуберт - Шуберт. Гении классической музыки.flac Extracted successfully Conclusion: this track is CDDA with probability 100% Tempfile successfully deleted.

Finished at: пятница, 20. 04. 2012. - 23:17.23 (operation time: 0:05.29)


Трекер:  [ 07-Май-2012 07:21 ]

  

Скачать .torrent

Размер .torrent файла 20 KB


Размер: 469 MB
Хэш (hash) релиза: 9af7f8ec790ebc02244eea1d02b1205295c56992

Еще никто не оставлял запись к записи скачать торрент VA - Шуберт. Гении классической музыки - 2012 . Будь первым!

!Обратная связь