Скачать через торрент VA - Бетховен. Гении классической музыки - 2012 ALAC, lossless бесплатно русская версия torrent активатор

Если у вас наблюдаются проблемы со скриншотами, переходом по ссылками, скачиванием торрентов - проблемы в блокировщике рекламы AdBlock. #хорошегоДня!


Статистика раздачи
Размер:  410 MB   |    Зарегистрирован:  5 лет 5 месяцев   |    .torrent скачан:  65 раз   |   
Раздают:  1  
   
Загрузка...
 
Автор Сообщение

Galfimbul

avatar Galfimbul


VA - Бетховен. Гении классической музыки

Год: 2012
Страна: Германия
Страна-производитель диска: Беларусь
Жанр: Classical
Издатель (лейбл): ВИГМА
Номер по каталогу: 3501
Наличие сканов в содержимом раздачи: да
Продолжительность: 01:14:19
Тексты: не требуются
Кодек: ALAC
Программа-риповщик : foobar2000 + iTunes (lossless)
Битрейт: lossless
Источник: Собственный CD
Треклист:
01. Симфония No. 5 - Allegro con brio
02. Эроика - Scherzo
03. К Элизе
04. Увертюра «Эгмонт»
05. Лунная соната
06. Струнный квартет Op.59 No.3 «Разумовский» - Allegro molto
07. Весенняя соната
08. Andante favori
09. Фиделио
10. Соната для фортепиано №8 «Патетическая»
11. Симфония №7 - Allegretto
12. Archduke Trio – Scherzo
  
Exact Audio Copy V0.99 prebeta 5 from 4. May 2009

Отчёт EAC об извлечении, выполненном 20. апреля 2012, 19:58

Л.В. Бетховен / Бетховен. Гении классической музыки

Дисковод: _NEC DVD_RW ND-3550A Adapter: 0 ID: 0

Режим чтения : ДостоверностьИспользование точного потока : ДаОтключение кэша аудио : ДаИспользование указателей C2 : Нет

Коррекция смещения при чтении : 48Способность читать области Lead-in и Lead-out : НетЗаполнение пропущенных сэмплов тишиной : ДаУдаление блоков с тишиной в начале и конце : НетПри вычислениях CRC использовались нулевые сэмплы : ДаИнтерфейс : Установленный внешний ASPI-интерфейс

Выходной формат : Внутренние WAV-операцииФормат сэмплов : 44.100 Гц; 16 бит; стерео

TOC извлечённого CD

Трек | Старт | Длительность | Начальный сектор | Конечный сектор --------------------------------------------------------------------- 1 | 0:00.00 | 5:34.59 | 0 | 25108 2 | 5:34.59 | 5:56.04 | 25109 | 51812 3 | 11:30.63 | 3:07.15 | 51813 | 65852 4 | 14:38.03 | 8:24.56 | 65853 | 103708 5 | 23:02.59 | 5:17.38 | 103709 | 127521 6 | 28:20.22 | 5:56.60 | 127522 | 154281 7 | 34:17.07 | 5:45.28 | 154282 | 180184 8 | 40:02.35 | 7:34.45 | 180185 | 214279 9 | 47:37.05 | 7:27.40 | 214280 | 247844 10 | 55:04.45 | 4:44.33 | 247845 | 269177 11 | 59:49.03 | 8:10.48 | 269178 | 305975 12 | 67:59.51 | 6:19.72 | 305976 | 334472

Характеристики диапазона извлечения и сообщения об ошибках

Выбранный диапазон

Имя файла F:\Music lossless\Л.В. Бетховен - Бетховен. Гении классической музыки.wav

Пиковый уровень 94.4 % Качество диапазона 99.9 % CRC теста 30DC9554 CRC копии 30DC9554 Копирование... OK

Ошибок не произошло

AccurateRip: сводка

Трек 1 нет в базе данныхТрек 2 нет в базе данныхТрек 3 нет в базе данныхТрек 4 нет в базе данныхТрек 5 нет в базе данныхТрек 6 нет в базе данныхТрек 7 нет в базе данныхТрек 8 нет в базе данныхТрек 9 нет в базе данныхТрек 10 нет в базе данныхТрек 11 нет в базе данныхТрек 12 нет в базе данных

Ни одного трека нет в базе AccurateRip

Конец отчёта
  
Started at: пятница, 20. 04. 2012. - 23:25.061 file found

1 -===- F:\Music lossless\Бетховен. Гении классической музыки\Л.В. Бетховен - Бетховен. Гении классической музыки.flac Extracted successfully Conclusion: this track is CDDA with probability 100% Tempfile successfully deleted.


Трекер:  [ 07-Май-2012 07:21 ]

  

Скачать .torrent

Размер .torrent файла 17 KB


Размер: 410 MB
Хэш (hash) релиза: 2bb0982cf6df10f19d9f340513ed4e56b43decc0

Еще никто не оставлял запись к записи скачать торрент VA - Бетховен. Гении классической музыки - 2012 ALAC, lossless . Будь первым!

!Обратная связь